Конвоиры / Chasers (1994) WEB-DL 1080p от KORSAR | D, P, P2, A

Ответить на тему
Статистика раздачи [Обновить пиров]
Размер:  8,14 GB   |    Зарегистрирован:  3 дня   |    .torrent скачан:  0 раз
Раздают:  12  [  0 KB/s  ]   Качают:  3  [  0 KB/s  ]   Подробная статистика пиров
 
   
 
 
Автор Сообщение

4udaki ®

Оффлайн

Медали


Пол: Мужской

Стаж: 5 лет 6 месяцев

Наличие запрета:

Сообщений: 6878

Откуда: korsars.info

Отдача: 2 Mb/s

Загрузка: 20 Mb/s

Нажми

Создавать темы 21-Май-2020 21:00

[Цитировать]

Название: Конвоиры
Оригинальное название: Chasers
Год выхода: 1994
Жанр: Комедия, приключения
Режиссер: Деннис Хоппер
В ролях: Том Беренджер, Уильям МакНамара, Эрика Элениак, Криспин Гловер, Мэттью Глэйв, Гранд Л. Буш, Дин Стокуэлл, Битти Шрэм, Гэри Бьюзи, Сеймур Кэссе
О фильме: Офицер берегового патруля военно-морских сил Рок Рилли думал, что его уже ничем не удивишь. Его свежеиспеченному напарнику Эдди Дивейну тоже все осточертело и он подумывает об увольнении из армии. Но удивляться им все-таки пришлось, они почувствовали себя настоящими юнцами, когда повстречались с лейтенантом ВМС Тони Джонсон, красивой и вздорной особой, которая и была тем заключенным, кого они должны были доставить на базу. Доставка должна проходить согласно заведенному порядку, однако Тони намерена во что бы то ни стало вырваться на свободу.

Страна: США
Студия: Morgan Creek Productions
Продолжительность: 01:41:03
Перевод: Дублированный, профессиональный многоголосый, профессиональный двухголосый, авторский одноголосый
Качество: WEB-DL 1080p
Формат: Matroska
Видео: MPEG-4 AVC, 1920x1040 (1.85:1), 9322 kbps, 23.976 fps
Аудио 1: Russian: 48 kHz, AC3, 2.0 ch, 192 kbps - DUB, Варус-видео
Аудио 2: Russian: 48 kHz, AC3, 2.0 ch, 192 kbps - MVO, ТВЦ
Аудио 3: Russian: 48 kHz, AC3, 2.0 ch, 192 kbps - DVO, Екатеринбург-Арт
Аудио 4: Russian: 48 kHz, AC3, 2.0 ch, 192 kbps - DVO, Ren TV (ТНТ, ДТВ)
Аудио 5: Russian: 48 kHz, AC3, 5.1 ch, 384 kbps - AVO, А. Михалёв
Аудио 6: Russian: 48 kHz, AC3, 2.0 ch, 192 kbps - AVO, А. Пронин
Аудио 7: English: 48 kHz, E-AC3, 6 ch, 640 kbps - Оригинал
Субтитры: Английские (Full, SDH)
Релиз от:

Примечание

Amazon Version

Скриншоты

MediaInfo

Общее
Уникальный идентификатор : 172079485075744643691488537119471313396 (0x81754DA5DE7C09CAAEFE18EC187A21F4)
Полное имя : Chasers.1994.AMZN.WEB-DL.1080p.KORSAR.mkv
Формат : Matroska
Версия формата : Version 2
Размер файла : 8,14 Гбайт
Продолжительность : 1 ч. 41 м.
Общий поток : 11,5 Мбит/сек
Дата кодирования : UTC 2020-02-28 12:58:48
Программа кодирования : mkvmerge v5.8.0 ('No Sleep / Pillow') built on Sep 2 2012 15:37:04
Библиотека кодирования : libebml v1.2.3 + libmatroska v1.3.0
Видео
Идентификатор : 1
Формат : AVC
Формат/Информация : Advanced Video Codec
Профиль формата : [email protected]
Параметр CABAC формата : Да
Параметр RefFrames формата : 4 кадра
Идентификатор кодека : V_MPEG4/ISO/AVC
Продолжительность : 1 ч. 41 м.
Вид битрейта : Постоянный
Битрейт : 9322 Кбит/сек
Номинальный битрейт : 10000 Кбит/сек
Ширина : 1920 пикселей
Высота : 1040 пикселей
Соотношение сторон : 1,85:1
Соотношение сторон в оригинале : 1,85:1
Режим частоты кадров : Постоянный
Частота кадров : 23,976 (24000/1001) кадра/сек
Цветовое пространство : YUV
Субдискретизация насыщенности : 4:2:0
Битовая глубина : 8 бит
Тип развёртки : Прогрессивная
Бит/(Пиксели*Кадры) : 0.195
Размер потока : 6,58 Гбайт (81%)
Язык : English
Default : Да
Forced : Нет
Цветовой диапазон : Limited
Основные цвета : BT.709
Характеристики трансфера : BT.709
Коэффициенты матрицы : BT.709
Аудио #1
Идентификатор : 2
Формат : AC-3
Формат/Информация : Audio Coding 3
Параметр Endianness формата : Big
Идентификатор кодека : A_AC3
Продолжительность : 1 ч. 41 м.
Вид битрейта : Постоянный
Битрейт : 192 Кбит/сек
Каналы : 2 канала
Расположение каналов : Front: L R
Частота : 48,0 КГц
Частота кадров : 31,250 кадров/сек (1536 SPF)
Битовая глубина : 16 бит
Метод сжатия : С потерями
Размер потока : 139 Мбайт (2%)
Заголовок : DUB | Варус-видео
Язык : Russian
Default : Да
Forced : Нет
Аудио #2
Идентификатор : 3
Формат : AC-3
Формат/Информация : Audio Coding 3
Параметр Endianness формата : Big
Идентификатор кодека : A_AC3
Продолжительность : 1 ч. 41 м.
Вид битрейта : Постоянный
Битрейт : 192 Кбит/сек
Каналы : 2 канала
Расположение каналов : Front: L R
Частота : 48,0 КГц
Частота кадров : 31,250 кадров/сек (1536 SPF)
Битовая глубина : 16 бит
Метод сжатия : С потерями
Размер потока : 139 Мбайт (2%)
Заголовок : MVO | ТВЦ
Язык : Russian
Default : Нет
Forced : Нет
Аудио #3
Идентификатор : 4
Формат : AC-3
Формат/Информация : Audio Coding 3
Параметр Endianness формата : Big
Идентификатор кодека : A_AC3
Продолжительность : 1 ч. 41 м.
Вид битрейта : Постоянный
Битрейт : 192 Кбит/сек
Каналы : 2 канала
Расположение каналов : Front: L R
Частота : 48,0 КГц
Частота кадров : 31,250 кадров/сек (1536 SPF)
Битовая глубина : 16 бит
Метод сжатия : С потерями
Размер потока : 139 Мбайт (2%)
Заголовок : DVO | Екатеринбург-Арт
Язык : Russian
Default : Нет
Forced : Нет
Аудио #4
Идентификатор : 5
Формат : AC-3
Формат/Информация : Audio Coding 3
Параметр Endianness формата : Big
Идентификатор кодека : A_AC3
Продолжительность : 1 ч. 41 м.
Вид битрейта : Постоянный
Битрейт : 192 Кбит/сек
Каналы : 2 канала
Расположение каналов : Front: L R
Частота : 48,0 КГц
Частота кадров : 31,250 кадров/сек (1536 SPF)
Битовая глубина : 16 бит
Метод сжатия : С потерями
Размер потока : 139 Мбайт (2%)
Заголовок : DVO | Ren TV (ТНТ, ДТВ)
Язык : Russian
Default : Нет
Forced : Нет
Аудио #5
Идентификатор : 6
Формат : AC-3
Формат/Информация : Audio Coding 3
Параметр Endianness формата : Big
Идентификатор кодека : A_AC3
Продолжительность : 1 ч. 41 м.
Вид битрейта : Постоянный
Битрейт : 384 Кбит/сек
Каналы : 6 каналов
Расположение каналов : Front: L C R, Side: L R, LFE
Частота : 48,0 КГц
Частота кадров : 31,250 кадров/сек (1536 SPF)
Битовая глубина : 16 бит
Метод сжатия : С потерями
Размер потока : 278 Мбайт (3%)
Заголовок : AVO | А. Михалёв
Язык : Russian
Default : Нет
Forced : Нет
Аудио #6
Идентификатор : 7
Формат : AC-3
Формат/Информация : Audio Coding 3
Параметр Endianness формата : Big
Идентификатор кодека : A_AC3
Продолжительность : 1 ч. 41 м.
Вид битрейта : Постоянный
Битрейт : 192 Кбит/сек
Каналы : 2 канала
Расположение каналов : Front: L R
Частота : 48,0 КГц
Частота кадров : 31,250 кадров/сек (1536 SPF)
Битовая глубина : 16 бит
Метод сжатия : С потерями
Размер потока : 139 Мбайт (2%)
Заголовок : AVO | А. Пронин
Язык : Russian
Default : Нет
Forced : Нет
Аудио #7
Идентификатор : 8
Формат : E-AC-3
Формат/Информация : Enhanced Audio Coding 3
Параметр Endianness формата : Big
Идентификатор кодека : A_EAC3
Продолжительность : 1 ч. 41 м.
Вид битрейта : Постоянный
Битрейт : 640 Кбит/сек
Каналы : 6 каналов
Расположение каналов : Front: L C R, Side: L R, LFE
Частота : 48,0 КГц
Частота кадров : 187,500 кадров/сек (256 SPF)
Метод сжатия : С потерями
Размер потока : 463 Мбайт (6%)
Заголовок : Original
Язык : English
Default : Нет
Forced : Нет
Текст #1
Идентификатор : 9
Формат : UTF-8
Идентификатор кодека : S_TEXT/UTF8
Идентификатор кодека/Информация : UTF-8 Plain Text
Заголовок : Full
Язык : English
Default : Нет
Forced : Нет
Текст #2
Идентификатор : 10
Формат : UTF-8
Идентификатор кодека : S_TEXT/UTF8
Идентификатор кодека/Информация : UTF-8 Plain Text
Заголовок : SDH
Язык : English
Default : Нет
Forced : Нет
Меню
00:00:00.000 : en:Day Before Discharge
00:03:09.107 : en:Update on Eddie's Baby
00:04:15.868 : en:Last, Final Scam
00:07:09.668 : en:Chaser Duty/Secret Stash
00:11:10.540 : en:Rock's New Partner
00:14:15.406 : en:Not Good with People...
00:17:13.630 : en:Jarheads Meet Fishboys
00:21:53.200 : en:The Prisoner
00:26:11.950 : en:No Rest at the Rest Stop
00:32:29.880 : en:Sabotage
00:37:31.558 : en:A Short Cut
00:41:22.171 : en:Irony on Foot
00:45:06.704 : en:Unexpected Depth
00:46:40.678 : en:Shirts - and More...
00:50:03.000 : en:Duane Lends a Tow
00:53:22.442 : en:Toni's Story
00:58:17.800 : en:No More Car, No More...
01:02:42.400 : en:Unlocked
01:08:03.841 : en:Toni Goes for a Ride
01:09:45.690 : en:They call me Doggie
01:11:15.000 : en:Doggie's Day
01:13:17.105 : en:Collision Course
01:16:30.600 : en:Fugitive Apprehended
01:19:00.650 : en:Miniature Golf Mayhem
01:21:10.860 : en:Belonging Where Toni...
01:24:25.100 : en:Letting Go
01:28:33.030 : en:Those Guys Don't...
01:30:04.800 : en:Gettin' the Girl Out
01:36:07.780 : en:Contented Couples
01:37:47.466 : en:End Credits
-
[korsars.info].t28922.torrent 
Торрент: Зарегистрирован [ 2020-05-21 21:00 ] · 777381E50C6ABF2623194A87EF3CD0265F0F5D1C

Скачать .torrent

Скачать .torrent

42 KB

Статус: проверено
.torrent скачан: 0 раз
Размер: 8,14 GB
Правила
Похожие темы

[Профиль] [ЛС]
Показать сообщения:    
Ответить на тему

Текущее время: 25-Май 20:44

Часовой пояс: UTC + 4



Вы не можете начинать темы
Вы не можете отвечать на сообщения
Вы не можете редактировать свои сообщения
Вы не можете удалять свои сообщения
Вы не можете голосовать в опросах
Вы не можете прикреплять файлы к сообщениям
Вы можете скачивать файлы
Анализ сайта korsars.info Яндекс.Метрика