Мастерство копа / Cop Craft [S01] (2019) BDRip 1080p | StudioBand

Ответить на тему
Статистика раздачи [Обновить пиров]
Размер:  12,92 GB   |    Зарегистрирован:  3 дня   |    .torrent скачан:  3 раза
Раздают:  4  [  0 KB/s  ]   Качают:  9  [  0 KB/s  ]   Подробная статистика пиров
 
   
 
 
Автор Сообщение

4udaki ®

Оффлайн

Медали


Пол: Мужской

Стаж: 5 лет 6 месяцев

Наличие запрета:

Сообщений: 6878

Откуда: korsars.info

Отдача: 2 Mb/s

Загрузка: 20 Mb/s

Нажми

Создавать темы 22-Май-2020 01:00

[Цитировать]

Информация о фильме
Название : Мастерство копа
Оригинальное название : Cop Craft / コップクラフト
Год выхода : 2019
Тип: TV
Жанр : Фэнтези, приключения
Режиссер : Итагаки Син
Описание : Пятнадцать лет назад случилось немыслимое — над Тихим океаном открылись гиперпространственные врата, ведущие в неведомый мир с названием Лето Семани, где обитают феи и монстры. На границе врат возник город Сан-Тереза, ставший пристанищем для более чем двух миллионов иммигрантов из обоих миров. Как в любом большом городе, здесь есть и богатые, и бедные. А главное, есть надежда — на то, что сможешь разбогатеть, так что Сан-Тереза — новоявленный город мечты, куда стремятся попасть все. В этой приграничной суматохе, как полагается, вовсю процветает преступность: наркотики, проституция и незаконный оборот оружия. А противостоят этому доблестные полицейские Сан-Терезы. Что же случится, когда столкнутся две противоположности: детектив Кэй Матоба и девушка-рыцарь Тирана? Они отличны во всём: начиная с половой принадлежности, месту рождения, и кончая характером и личными убеждениями. Два мира. Две справедливости. Чего тут можно ждать? Разумеется, только отличной, полной экшена истории о двух напарниках!
world-art | MyAnimeList | Офиц. Сайт
Страна : Япония
Производство : Millepensee
Продолжительность : 12 эпизодов по ~00:24:00
Перевод: Профессиональный (многоголосый закадровый)
Перевод:
Русские субтитры: AniPlay
Перевод и редактура: yungshin (01-02), vlesiha (03-12)
Русские субтитры: SovetRomantica
Перевод: Satanika, _Niki_
Русские субтитры:
Перевод, Перевод песен и Оформление: Kir-Dagoor
Озвучка: ТО Студийная Банда WAKANIM
- многоголосая: Александр Скиданов, Анатолий Нокс, Ирина Евтягина, Александр Русаков, Ислам Ганджаев, Полина Ртищева
По переводу: Оксана Дю [Истари Комикс], по заказу WAKANIM
За озвучку спасибо moscowgolem
Автор рипа: Moozzi2
Файл
Качество : BDRip
Тип релиза: Без хардсаба
Формат видео: MKV
Наличие линковки: Нет
Видео: AVC, 1920x1080 (16:9), 5224 kbps, 23.976 fps, 8bit
Аудио : Японский, FLAC, 1354 Кбит/с, 48.0 kHz, 2 ch (в составе контейнера)
Аудио: Русский, AAC, 192 Кбит/с, 48.0 kHz, 2 ch (внешним файлам)
Субтитры (ASS): Русские (внешними файлами)
Субтитры (ASS): Английские (внешними файлами) - Перевод: Erai-raws

Список эпизодов

01. История копа и чёрная магия / Cop Show, Witch Craft
02. Сеть иллюзий / Dragnet Mirage
03. Полночный поезд / Midnight Train
04. В вечернем воздухе / In the Air Tonight
05. Одинокий вампир / Lonesome Vampire
06. Жажда скорости / Need for Speed
07. Девчонки на льду / Girls on Ice
08. Не в себе / Smells Like Toon Spirits
09. Серый кардинал / A King Maker
10. Кто убил петуха Робина? / Cock Robin, John Doe
11. Промежуточные кризисы / Transitional Crises
12. Два мира, два суда / Two Worlds, Two Justices

Скриншоты

MediaInfo

General
Unique ID : 163158993095449539621493601805438158568 (0x7ABF476FCFC529C680B60602931606E8)
Complete name : E:/Torrent_2/Cop Craft (2019, AVC BDRip-1080p, RUS JAP+SUB)/[Moozzi2] Cop Craft - 01 (BD 1920x1080 x.264 Flac).mkv
Format : Matroska
Format version : Version 4
File size : 1.09 GiB
Duration : 23 min 41 s
Overall bit rate mode : Variable
Overall bit rate : 6 580 kb/s
Encoded date : UTC 2020-01-06 11:41:22
Writing application : mkvmerge v28.2.0 ('The Awakening') 64-bit
Writing library : libebml v1.3.6 + libmatroska v1.4.9
Video
ID : 1
Format : AVC
Format/Info : Advanced Video Codec
Format profile : [email protected]
Format settings : CABAC / 5 Ref Frames
Format settings, CABAC : Yes
Format settings, Reference : 5 frames
Codec ID : V_MPEG4/ISO/AVC
Duration : 23 min 41 s
Bit rate : 5 224 kb/s
Width : 1 920 pixels
Height : 1 080 pixels
Display aspect ratio : 16:9
Frame rate mode : Constant
Frame rate : 23.976 (24000/1001) FPS
Color space : YUV
Chroma subsampling : 4:2:0
Bit depth : 8 bits
Scan type : Progressive
Bits/(Pixel*Frame) : 0.105
Stream size : 885 MiB (79%)
Writing library : x264 core 157 r2935 545de2f
Encoding settings : cabac=1 / ref=5 / deblock=1:1:1 / analyse=0x3:0x113 / me=umh / subme=9 / psy=1 / psy_rd=1.00:0.00 / mixed_ref=1 / me_range=32 / chroma_me=1 / trellis=1 / 8x8dct=1 / cqm=0 / deadzone=21,11 / fast_pskip=0 / chroma_qp_offset=-2 / threads=34 / lookahead_threads=2 / sliced_threads=0 / nr=0 / decimate=1 / interlaced=0 / bluray_compat=0 / stitchable=1 / constrained_intra=0 / bframes=3 / b_pyramid=2 / b_adapt=2 / b_bias=0 / direct=1 / weightb=1 / open_gop=0 / weightp=1 / keyint=240 / keyint_min=23 / scenecut=40 / intra_refresh=0 / rc_lookahead=40 / rc=crf / mbtree=1 / crf=16.0 / qcomp=0.65 / qpmin=0 / qpmax=69 / qpstep=4 / ip_ratio=1.40 / aq=1:1.00
Language : Japanese
Default : Yes
Forced : No
Audio
ID : 2
Format : FLAC
Format/Info : Free Lossless Audio Codec
Codec ID : A_FLAC
Duration : 23 min 41 s
Bit rate mode : Variable
Bit rate : 1 354 kb/s
Channel(s) : 2 channels
Channel layout : L R
Sampling rate : 48.0 kHz
Frame rate : 11.719 FPS (4096 SPF)
Bit depth : 24 bits
Compression mode : Lossless
Stream size : 229 MiB (21%)
Writing library : libFLAC 1.3.2 (UTC 2017-01-01)
Language : Japanese
Default : Yes
Forced : No
-
[korsars.info].t28929.torrent 
Торрент: Зарегистрирован [ 2020-05-22 01:00 ] · 531260BA5F8602EA631998C97E2630294FEAB00E

Скачать .torrent

Скачать .torrent

144 KB

Статус: проверено
.torrent скачан: 3 раз
Размер: 12,92 GB
Правила
Rentgen(22-Май-20)
Похожие темы

[Профиль] [ЛС]
Показать сообщения:    
Ответить на тему

Текущее время: 25-Май 20:13

Часовой пояс: UTC + 4



Вы не можете начинать темы
Вы не можете отвечать на сообщения
Вы не можете редактировать свои сообщения
Вы не можете удалять свои сообщения
Вы не можете голосовать в опросах
Вы не можете прикреплять файлы к сообщениям
Вы можете скачивать файлы
Анализ сайта korsars.info Яндекс.Метрика