Мстители: Финал / Avengers: Endgame (2019) UHD BDRip-HEVC 2160p | D | 4K | HDR

Ответить на тему
Статистика раздачи [Обновить пиров]
Размер:  26,64 GB   |    Зарегистрирован:  3 дня   |    .torrent скачан:  0 раз
Раздают:  48  [  0 KB/s  ]   Качают:  11  [  0 KB/s  ]   Подробная статистика пиров
 
   
 
 
Автор Сообщение

4udaki ®

Оффлайн

Медали


Пол: Мужской

Стаж: 5 лет 6 месяцев

Наличие запрета:

Сообщений: 6874

Откуда: korsars.info

Отдача: 2 Mb/s

Загрузка: 20 Mb/s

Нажми

Создавать темы 22-Май-2020 09:00

[Цитировать]

Информация о фильме
Название: Мстители: Финал
Оригинальное название: Avengers: Endgame
Год выпуска: 2019
Жанр: Фантастика, фэнтези, боевик, приключения
Режиссер: Энтони Руссо, Джо Руссо
В ролях: Роберт Дауни мл., Крис Эванс, Марк Руффало, Крис Хемсворт, Скарлетт Йоханссон, Джереми Реннер, Дон Чидл, Пол Радд, Бри Ларсон, Карен Гиллан
О фильме: Оставшиеся в живых члены команды Мстителей и их союзники должны разработать новый план, который поможет противостоять разрушительным действиям могущественного титана Таноса. После наиболее масштабной и трагической битвы в истории они не могут допустить ошибку.

Страна: США
Студия: Marvel Studios
Продолжительность: 03:01:32
Перевод: Дублированный
Файл
Кодек: H.265
Качество: UHD BDRip-HEVC 2160p (Видеоряд от BLUEBIRD-HD.ORG, автор рипа KirDan)
Видео: HEVC, 17000 Кбит/с, 3840x1608, 23.976 кадр/с, 10 бит
Аудио #1: Russian: 48 kHz/24-bit, DTS, 3/2 (L,C,R,l,r) + LFE ch, ~1509 kbps avg |Дубляж, Custom|
Аудио #2: Ukrainian: 48 kHz/16-bit, AC3, 3/2 (L,C,R,l,r) + LFE ch, ~640 kbps avg |Дубляж, LeDoyen|
Аудио #3: Russian: 48 kHz/16-bit, AC3, 2.0 (L,R) ch, ~192 kbps avg |Дубляж, Deive|
Аудио #4: English: 48 kHz/24-bit, E-AC-3 7.1, ~1536 kbps avg
Аудио #5: English: 48 kHz/16-bit, AC3, 2.0 (L,R) ch, ~192 kbps avg |Commentary|
Субтитры: Русские (Forced, Full, SDH), Украинские (Forced), Английские (Full, SDH, Commentary)

Mediainfo

General
Unique ID : 203051429139939670471183360760936633408 (0x98C2486329FEFD70A3FEA0F4601B9440)
Complete name : Avengers - Endgame (2019) [4K HDR UHD-BDRip 2160p].mkv
Format : Matroska
Format version : Version 4
File size : 26.6 GiB
Duration : 3 h 1 min
Overall bit rate : 21.0 Mb/s
Movie name : Avengers: Endgame (2019) [4K HDR UHD-BDRip 2160p]
Encoded date : UTC 2019-11-02 17:08:57
Writing application : mkvmerge v8.3.0 ('Over the Horizon') 32bit
Writing library : libebml v1.3.1 + libmatroska v1.4.2
Cover : Yes
Attachments : Cover.jpg
Video
ID : 1
Format : HEVC
Format/Info : High Efficiency Video Coding
Commercial name : HDR10
Format profile : Main [email protected]@High
Codec ID : V_MPEGH/ISO/HEVC
Duration : 3 h 1 min
Bit rate : 17.0 Mb/s
Width : 3 840 pixels
Height : 1 608 pixels
Display aspect ratio : 2.40:1
Frame rate mode : Constant
Frame rate : 23.976 (24000/1001) FPS
Color space : YUV
Chroma subsampling : 4:2:0 (Type 2)
Bit depth : 10 bits
Bits/(Pixel*Frame) : 0.115
Stream size : 21.5 GiB (81%)
Title : Encoded by KirDan
Writing library : x265 3.1+10-459d3822c608:[Windows][GCC 9.1.1][64 bit] 10bit
Encoding settings : cpuid=1111039 / frame-threads=5 / numa-pools=16,16,16,16 / wpp / no-pmode / pme / no-psnr / no-ssim / log-level=2 / input-csp=1 / input-res=3840x1608 / interlace=0 / total-frames=260656 / level-idc=51 / high-tier=1 / uhd-bd=0 / ref=4 / no-allow-non-conformance / repeat-headers / annexb / no-aud / no-hrd / info / hash=0 / no-temporal-layers / no-open-gop / min-keyint=24 / keyint=250 / gop-lookahead=0 / bframes=8 / b-adapt=2 / b-pyramid / bframe-bias=0 / rc-lookahead=72 / lookahead-slices=4 / scenecut=40 / radl=0 / no-splice / no-intra-refresh / ctu=64 / min-cu-size=8 / rect / amp / max-tu-size=32 / tu-inter-depth=1 / tu-intra-depth=1 / limit-tu=0 / rdoq-level=2 / dynamic-rd=0.00 / no-ssim-rd / signhide / no-tskip / nr-intra=0 / nr-inter=0 / no-constrained-intra / strong-intra-smoothing / max-merge=5 / limit-refs=3 / limit-modes / me=3 / subme=7 / merange=57 / temporal-mvp / no-hme / weightp / weightb / no-analyze-src-pics / deblock=-3:-3 / sao / no-sao-non-deblock / rd=4 / no-early-skip / no-rskip / no-fast-intra / no-tskip-fast / no-cu-lossless / b-intra / no-splitrd-skip / rdpenalty=0 / psy-rd=2.00 / psy-rdoq=2.00 / no-rd-refine / no-lossless / cbqpoffs=0 / crqpoffs=0 / rc=crf / crf=16.5 / qcomp=0.60 / qpstep=4 / stats-write=0 / stats-read=0 / vbv-maxrate=160000 / vbv-bufsize=160000 / vbv-init=0.9 / crf-max=0.0 / crf-min=0.0 / ipratio=1.40 / pbratio=1.30 / aq-mode=2 / aq-strength=0.80 / no-cutree / zone-count=2 / zones: / start-frame=0 / end-frame=3652 / bitrate-factor=1.350000 / zones: / start-frame=249527 / end-frame=260655 / bitrate-factor=0.400000 / no-strict-cbr / qg-size=32 / no-rc-grain / qpmax=69 / qpmin=0 / no-const-vbv / sar=1 / overscan=0 / videoformat=5 / range=0 / colorprim=9 / transfer=16 / colormatrix=9 / chromaloc=1 / chromaloc-top=2 / chromaloc-bottom=2 / display-window=0 / master-display=G(13250,34500)B(7500,3000)R(34000,16000)WP(15635,16450)L(40000000,50)cll=0,0 / min-luma=0 / max-luma=1023 / log2-max-poc-lsb=8 / vui-timing-info / vui-hrd-info / slices=1 / no-opt-qp-pps / no-opt-ref-list-length-pps / no-multi-pass-opt-rps / scenecut-bias=0.05 / no-opt-cu-delta-qp / no-aq-motion / hdr / hdr-opt / no-dhdr10-opt / no-idr-recovery-sei / analysis-reuse-level=5 / scale-factor=0 / refine-intra=0 / refine-inter=0 / refine-mv=0 / refine-ctu-distortion=0 / no-limit-sao / ctu-info=0 / no-lowpass-dct / refine-analysis-type=0 / copy-pic=1 / max-ausize-factor=1.0 / no-dynamic-refine / no-single-sei / no-hevc-aq / no-svt / no-field / qp-adaptation-range=1.00
Language : English
Default : Yes
Forced : No
Color range : Limited
Color primaries : BT.2020
Transfer characteristics : PQ
Matrix coefficients : BT.2020 non-constant
Mastering display color pri : Display P3
Mastering display luminance : min: 0.0050 cd/m2, max: 4000 cd/m2
Audio #1
ID : 2
Format : DTS
Format/Info : Digital Theater Systems
Codec ID : A_DTS
Duration : 3 h 1 min
Bit rate mode : Constant
Bit rate : 1 509 kb/s
Channel(s) : 6 channels
Channel layout : C L R Ls Rs LFE
Sampling rate : 48.0 kHz
Frame rate : 93.750 FPS (512 SPF)
Bit depth : 24 bits
Compression mode : Lossy
Stream size : 1.91 GiB (7%)
Title : Дубляж
Language : Russian
Default : No
Forced : No
Audio #2
ID : 3
Format : AC-3
Format/Info : Audio Coding 3
Commercial name : Dolby Digital
Codec ID : A_AC3
Duration : 3 h 1 min
Bit rate mode : Constant
Bit rate : 640 kb/s
Channel(s) : 6 channels
Channel layout : L R C LFE Ls Rs
Sampling rate : 48.0 kHz
Frame rate : 31.250 FPS (1536 SPF)
Bit depth : 16 bits
Compression mode : Lossy
Stream size : 829 MiB (3%)
Title : Дубляж
Language : Ukrainian
Service kind : Complete Main
Default : No
Forced : No
Audio #3
ID : 4
Format : AC-3
Format/Info : Audio Coding 3
Commercial name : Dolby Digital
Codec ID : A_AC3
Duration : 3 h 1 min
Bit rate mode : Constant
Bit rate : 192 kb/s
Channel(s) : 2 channels
Channel layout : L R
Sampling rate : 48.0 kHz
Frame rate : 31.250 FPS (1536 SPF)
Bit depth : 16 bits
Compression mode : Lossy
Stream size : 249 MiB (1%)
Title : Deive [iTunes]
Language : Russian
Service kind : Complete Main
Default : No
Forced : No
Audio #4
ID : 5
Format : E-AC-3
Format/Info : Enhanced AC-3
Commercial name : Dolby Digital Plus
Format profile : Blu-ray Disc
Codec ID : A_EAC3
Duration : 3 h 1 min
Bit rate mode : Constant
Bit rate : 1 536 kb/s
Channel(s) : 6 channels
Channel(s)_Original : 8 channels
Channel layout : L R C LFE Ls Rs Lb Rb
Sampling rate : 48.0 kHz
Frame rate : 31.250 FPS (1536 SPF)
Compression mode : Lossy
Stream size : 1.94 GiB (7%)
Language : English
Service kind : Complete Main
Default : No
Forced : No
Audio #5
ID : 6
Format : AC-3
Format/Info : Audio Coding 3
Commercial name : Dolby Digital
Codec ID : A_AC3
Duration : 3 h 1 min
Bit rate mode : Constant
Bit rate : 192 kb/s
Channel(s) : 2 channels
Channel layout : L R
Sampling rate : 48.0 kHz
Frame rate : 31.250 FPS (1536 SPF)
Bit depth : 16 bits
Compression mode : Lossy
Stream size : 249 MiB (1%)
Title : Commentary
Language : English
Service kind : Complete Main
Default : No
Forced : No
Text #1
ID : 7
Format : UTF-8
Codec ID : S_TEXT/UTF8
Codec ID/Info : UTF-8 Plain Text
Duration : 2 h 17 min
Bit rate : 1 b/s
Count of elements : 41
Stream size : 1.63 KiB (0%)
Title : Forced
Language : Russian
Default : Yes
Forced : No
Text #2
ID : 8
Format : UTF-8
Codec ID : S_TEXT/UTF8
Codec ID/Info : UTF-8 Plain Text
Duration : 2 h 48 min
Bit rate : 81 b/s
Count of elements : 2239
Stream size : 101 KiB (0%)
Title : Full
Language : Russian
Default : No
Forced : No
Text #3
ID : 9
Format : UTF-8
Codec ID : S_TEXT/UTF8
Codec ID/Info : UTF-8 Plain Text
Duration : 3 h 0 min
Bit rate : 78 b/s
Count of elements : 2627
Stream size : 104 KiB (0%)
Title : SDH
Language : Russian
Default : No
Forced : No
Text #4
ID : 10
Format : UTF-8
Codec ID : S_TEXT/UTF8
Codec ID/Info : UTF-8 Plain Text
Duration : 2 h 17 min
Bit rate : 1 b/s
Count of elements : 33
Stream size : 1.10 KiB (0%)
Title : Forced
Language : Ukrainian
Default : No
Forced : No
Text #5
ID : 11
Format : UTF-8
Codec ID : S_TEXT/UTF8
Codec ID/Info : UTF-8 Plain Text
Duration : 2 h 47 min
Bit rate : 49 b/s
Count of elements : 2330
Stream size : 61.4 KiB (0%)
Title : Full
Language : English
Default : No
Forced : No
Text #6
ID : 12
Format : UTF-8
Codec ID : S_TEXT/UTF8
Codec ID/Info : UTF-8 Plain Text
Duration : 3 h 0 min
Bit rate : 51 b/s
Count of elements : 2633
Stream size : 68.8 KiB (0%)
Title : SDH
Language : English
Default : No
Forced : No
Text #7
ID : 13
Format : UTF-8
Codec ID : S_TEXT/UTF8
Codec ID/Info : UTF-8 Plain Text
Duration : 3 h 0 min
Bit rate : 119 b/s
Count of elements : 3260
Stream size : 159 KiB (0%)
Title : Commentary
Language : English
Default : No
Forced : No
Menu
00:00:00.000 : en:One Last Surprise
00:08:06.069 : en:"To The Garden"
00:20:01.867 : en:Five Years Later
00:26:15.449 : en:"A Time Heist"
00:36:57.340 : en:"Time Travel Do-Over"
00:43:20.765 : en:"I Fixed It"
00:48:44.338 : en:Assembling The Avengers
00:57:36.912 : en:"Get The Stones, Get Them Back"
01:07:12.779 : en:Rogue Transmission
01:16:02.683 : en:New York, 2012
01:26:25.597 : en:Asgard, 2013
01:32:20.285 : en:Morag, 2014
01:38:55.972 : en:New Jersey, 1970
01:48:12.528 : en:Vormir, 2014
01:57:27.082 : en:"I Was Made For This"
02:05:00.410 : en:Thanos' Return
02:15:06.598 : en:Avengers Assemble
02:25:50.617 : en:One Of The 14,000,605
02:34:38.102 : en:"Part Of The Journey Is The End"
02:43:04.066 : en:"Clip All The Branches"
02:49:05.510 : en:End Credits

Скриншоты

- Видеоряд от BLUEBIRD-HD.ORG, автор KirDan
- Дорожка №2 изготовлена il2003 из оригинальной Atmos/TrueHD и дублированной AC3 384 kbps, методом монтажа участков английской речи на русскую, во всех каналах. Дорожка взята из релиза от TeamHD
- Сборка всего этого добра от меня - AlcohoLiTTO ab-
[korsars.info].t28934.torrent 
Торрент: Зарегистрирован [ 2020-05-22 09:00 ] · 6860005CB0440B7E3FA32C4A432A21A22BBC4F7B

Скачать .torrent

Скачать .torrent

267 KB

Статус: проверено
.torrent скачан: 0 раз
Размер: 26,64 GB
Правила
Похожие темы

[Профиль] [ЛС]
Показать сообщения:    
Ответить на тему

Текущее время: 25-Май 21:38

Часовой пояс: UTC + 4



Вы не можете начинать темы
Вы не можете отвечать на сообщения
Вы не можете редактировать свои сообщения
Вы не можете удалять свои сообщения
Вы не можете голосовать в опросах
Вы не можете прикреплять файлы к сообщениям
Вы можете скачивать файлы
Анализ сайта korsars.info Яндекс.Метрика