Лего Шазам: Магия и монстры / LEGO DC: Shazam - Magic & Monsters (2020) WEB-DL 1080p | Flarrow Films

Ответить на тему
Статистика раздачи [Обновить пиров]
Размер:  3,1 GB   |    Зарегистрирован:  3 дня   |    .torrent скачан:  5 раз
Раздают:  249  [  22 KB/s  ]   Качают:  15  [  0 KB/s  ]   Подробная статистика пиров
 
   
 
 
Автор Сообщение

flarrowfilms ®

Оффлайн

Медали
Друг трекераСупер Мега Контер Квейк


Пол: Не указан

Стаж: 2 месяца 1 день

Наличие запрета:

Сообщений: 12

Отдача: 5 Mb/s

Загрузка: 5 Mb/s

Нажми

Создавать темы 22-Май-2020 12:57

[Цитировать]

Информация о фильме
Название: Лего Шазам: Магия и монстры
Оригинальное название: LEGO DC: Shazam - Magic & Monsters
Год выхода: 2020
Жанр: мультфильм, фантастика, фэнтези, боевик, комедия, приключения, семейный
Режиссер: Мэтт Питерс
В ролях: Джонни Рис, Шон Эстин, Ди Брэдли Бейкер, Трой Бэйкер, Зак Каллисон, Ральф Гармен, Грэй Гриффин, Дженнифер Хейл, Том Кенни, Кристина Милиция
О фильме:
Мальчику супергерою Шазаму предлагают присоединиться к Лиге Справедливости, и поначалу он сомневается. Но когда враждебное Лиге Общество Монстров наносит удар, лишь Шазам может спасти своих новых друзей.

Страна: США
Продолжительность: 01:21:21
Перевод: Профессиональный (многоголосый, закадровый) | Flarrow Films
Файл
Формат: MKV
Кодек: MPEG-4 AVC
Качество: WEB-DL 1080p
Видео: 1920х1078, ~ 5 134 kb/s, 23.976 FPS, 8 bits
Звук: AC-3, 320 kb/s, 2 channels, 48.0 kHz
Субтитры: отсутствуют-

MediaInfo

General
Unique ID : 271022454764854572557508764873211645467 (0xCBE506B00431A3B0BEC4C2AA7E0E0E1B)
Complete name : Lego.DC.Shazam.Magic.And.Monsters.2020.mkv
Format : Matroska
Format version : Version 4
File size : 3.10 GiB
Duration : 1 h 21 min
Overall bit rate : 5 455 kb/s
Movie name : Lego.DC.Shazam.Magic.And.Monsters.2020.1080p.WEB-DL.DD5.1.H264-FGT
Encoded date : UTC 2020-05-22 07:36:26
Writing application : mkvmerge v32.0.0 ('Astral Progressions') 64-bit
Writing library : libebml v1.3.7 + libmatroska v1.5.0
Cover : Yes
Attachments : cover_land.jpg / small_cover.jpg / small_cover_land.jpg / cover.jpg
Video
ID : 1
Format : AVC
Format/Info : Advanced Video Codec
Format profile : [email protected]
Format settings : CABAC / 4 Ref Frames
Format settings, CABAC : Yes
Format settings, Reference : 4 frames
Codec ID : V_MPEG4/ISO/AVC
Duration : 1 h 21 min
Bit rate : 5 134 kb/s
Width : 1 920 pixels
Height : 1 078 pixels
Display aspect ratio : 16:9
Frame rate mode : Constant
Frame rate : 23.976 (24000/1001) FPS
Color space : YUV
Chroma subsampling : 4:2:0
Bit depth : 8 bits
Scan type : Progressive
Bits/(Pixel*Frame) : 0.103
Stream size : 2.92 GiB (94%)
Title : Lego.DC.Shazam.Magic.And.Monsters.2020.1080p.WEB-DL.DD5.1.H264-FGT
Language : English
Default : Yes
Forced : No
Color range : Limited
Color primaries : BT.709
Transfer characteristics : BT.709
Matrix coefficients : BT.709
Audio
ID : 2
Format : AC-3
Format/Info : Audio Coding 3
Commercial name : Dolby Digital
Codec ID : A_AC3
Duration : 1 h 21 min
Bit rate mode : Constant
Bit rate : 320 kb/s
Channel(s) : 2 channels
Channel layout : L R
Sampling rate : 48.0 kHz
Frame rate : 31.250 FPS (1536 SPF)
Compression mode : Lossy
Delay relative to video : -42 ms
Stream size : 186 MiB (6%)
Service kind : Complete Main
Default : Yes
Forced : No
-

Скриншоты

-Релиз от: Flarrow Films
Примечание: Без интро Flarrow Films-
[korsars.info].t28936.torrent 
Торрент: Зарегистрирован [ 2020-05-22 12:57 ] · EC0477A5188FBEED58F2F466FB8106C4865CDCCF

Скачать .torrent

Скачать .torrent

16 KB

Статус: проверено
.torrent скачан: 5 раз
Размер: 3,1 GB
Правила
4udaki(22-Май-20)
Похожие темы

[Профиль] [ЛС]
Показать сообщения:    
Ответить на тему

Текущее время: 25-Май 22:28

Часовой пояс: UTC + 4



Вы не можете начинать темы
Вы не можете отвечать на сообщения
Вы не можете редактировать свои сообщения
Вы не можете удалять свои сообщения
Вы не можете голосовать в опросах
Вы не можете прикреплять файлы к сообщениям
Вы можете скачивать файлы
Анализ сайта korsars.info Яндекс.Метрика