Вперёд / Onward (2020) UHD WEB-DL 2160p от селезень | 4K | HDR | iTunes

Ответить на тему
Статистика раздачи [Обновить пиров]
Размер:  12,48 GB   |    Зарегистрирован:  3 дня   |    .torrent скачан:  0 раз
Раздают:  364  [  0 KB/s  ]   Качают:  18  [  0 KB/s  ]   Подробная статистика пиров
 
   
 
 
Автор Сообщение

4udaki ®

Оффлайн

Медали


Пол: Мужской

Стаж: 5 лет 6 месяцев

Наличие запрета:

Сообщений: 6878

Откуда: korsars.info

Отдача: 2 Mb/s

Загрузка: 20 Mb/s

Нажми

Создавать темы 22-Май-2020 17:00

[Цитировать]

Информация о фильме
Название: Вперёд
Оригинальное название: Onward
Год выхода: 2020
Жанр: Мультфильм, фэнтези, комедия, приключения, семейный, полнометражный
Режиссер: Дэн Скэнлон
В ролях: Том Холланд (II), Крис Прэтт, Джулия Луис-Дрейфус, Джон Ратценбергер, Октавия Спенсер, Мэл Родригес, Лина Уэйте, Али Вонг, Грей ДеЛайл, Трейси Ульман

О фильме: Когда-то давно в сказочном мире царила магия, но после открытия электричества маги стали не нужны, и развитие пошло по техногенному пути. Теперь эльфы, тролли, гоблины, мантикоры, феи, кентавры и единороги летают на самолетах, пользуются автомобилями и мобильниками и ведут в целом прозаичную жизнь. Братья-эльфы Иэн и Барли Лайтфуты воспитывались одной мамой, потому что их отец умер, когда они были ещё совсем маленькими. На 16-летие Иэну достаётся посох отца, и магическое заклинание, которое должно вернуть того к жизни на один день, но волшебный кристалл исчезает, воскресив только нижнюю половину папы. Барли, большой любитель квестов, невероятно рад — прихватив полупапу, братья отправляются в приключение на поиски другого кристалла.
Страна: США
Студия: Walt Disney Pictures, Pixar Animation Studios
Продолжительность: 01:42:25
Перевод: Дублированный | iTunes
Качество: WEB-DL 2160p
Видео: 3840x2160 at 23.976 fps, MPEG-H HEVC HDR Video, 16300 kbps avg
Аудио #01: 48 kHz, AC3, 5.1, 384 Kbps | iTunes | RUS |
Аудио #02: 48 kHz, E-AC3 + Atmos, 5.1, 768 Kbps | Оригинал | ENG |
Субтитры: Русские (Full), английские

MI

General
Unique ID : 109742449865143462961955302287124581204 (0x528FA08577F74C8E2A83050C9F51CB54)
Complete name : E:Video1114kOnward.2020.WEB-DL.2160p.HDR.seleZen.mkv
Format : Matroska
Format version : Version 4
File size : 12.5 GiB
Duration : 1 h 42 min
Overall bit rate : 17.4 Mb/s
Movie name : Onward 2020 from селезень
Encoded date : UTC 2020-04-16 19:12:10
Writing application : mkvmerge v40.0.0 ('Old Town Road + Pony') 64-bit
Writing library : libebml v1.3.9 + libmatroska v1.5.2
Cover : Yes
Attachments : cover.jpg
Video
ID : 1
Format : HEVC
Format/Info : High Efficiency Video Coding
Format profile : Main [email protected]@High
HDR format : SMPTE ST 2086, HDR10 compatible
Codec ID : V_MPEGH/ISO/HEVC
Duration : 1 h 42 min
Bit rate : 16.3 Mb/s
Width : 3 840 pixels
Height : 2 160 pixels
Display aspect ratio : 16:9
Frame rate mode : Constant
Frame rate : 23.976 (24000/1001) FPS
Color space : YUV
Chroma subsampling : 4:2:0
Bit depth : 10 bits
Bits/(Pixel*Frame) : 0.082
Stream size : 11.7 GiB (93%)
Language : English
Default : Yes
Forced : No
Color range : Limited
Color primaries : BT.2020
Transfer characteristics : PQ
Matrix coefficients : BT.2020 non-constant
Mastering display color pri : BT.2020
Mastering display luminance : min: 0.0000 cd/m2, max: 1000 cd/m2
Audio #1
ID : 2
Format : AC-3
Format/Info : Audio Coding 3
Commercial name : Dolby Digital
Codec ID : A_AC3
Duration : 1 h 42 min
Bit rate mode : Constant
Bit rate : 384 kb/s
Channel(s) : 6 channels
Channel layout : L R C LFE Ls Rs
Sampling rate : 48.0 kHz
Frame rate : 31.250 FPS (1536 SPF)
Compression mode : Lossy
Stream size : 281 MiB (2%)
Title : iTunes
Language : Russian
Service kind : Complete Main
Default : Yes
Forced : Yes
Audio #2
ID : 3
Format : E-AC-3 JOC
Format/Info : Enhanced AC-3 with Joint Object Coding
Commercial name : Dolby Digital Plus with Dolby Atmos
Codec ID : A_EAC3
Duration : 1 h 42 min
Bit rate mode : Constant
Bit rate : 768 kb/s
Channel(s) : 6 channels
Channel layout : L R C LFE Ls Rs
Sampling rate : 48.0 kHz
Frame rate : 31.250 FPS (1536 SPF)
Compression mode : Lossy
Stream size : 562 MiB (4%)
Title : Original
Language : English
Service kind : Complete Main
Default : No
Forced : No
Complexity index : 16
Number of dynamic objects : 15
Bed channel count : 1 channel
Bed channel configuration : LFE
Text #1
ID : 4
Format : UTF-8
Codec ID : S_TEXT/UTF8
Codec ID/Info : UTF-8 Plain Text
Duration : 1 h 31 min
Bit rate : 113 b/s
Count of elements : 1556
Stream size : 76.3 KiB (0%)
Title : Full
Language : Russian
Default : No
Forced : No
Text #2
ID : 5
Format : UTF-8
Codec ID : S_TEXT/UTF8
Codec ID/Info : UTF-8 Plain Text
Duration : 1 h 35 min
Bit rate : 75 b/s
Count of elements : 1904
Stream size : 53.0 KiB (0%)
Title : SDH
Language : English
Default : No
Forced : No
Menu
00:00:00.000 : en:Studio Logo
00:00:48.054 : en:Long ago
00:03:03.054 : en:Title Sequence
00:03:08.054 : en:Ian's morning
00:05:02.054 : en:Officer Bronco comes to Ligjtfoots
00:07:02.054 : en:Ian meet Dad's friend
00:08:13.054 : en:Making a list
00:09:33.054 : en:Ian starts his day
00:12:43.054 : en:Ian misses his Dad
00:14:52.054 : en:A gift from Dad
00:19:16.054 : en:Ian is at his room
00:20:37.054 : en:Barley comes up with something
00:23:45.054 : en:Barley drives his car
00:25:33.054 : en:Learning magic
00:27:24.054 : en:The boys look for the Manticore
00:31:20.054 : en:The Manticore comes back
00:32:48.054 : en:Laurel worries about the boys
00:36:32.054 : en:Guinevere gets a trouble
00:39:33.054 : en:Ian tries magic again
00:42:47.054 : en:The Manticore talks to Laurel
00:43:59.054 : en:Ian drives Guinevere
00:47:47.054 : en:The spell wears off
00:51:42.054 : en:Barley argues with Ian
00:54:58.054 : en:Grecklin of the Pawn shop
00:56:06.054 : en:Bronco calls Laurel
00:57:23.054 : en:Raven's Point
01:03:05.054 : en:Bronco chases the boys
01:07:04.054 : en:The boys follow the birds
01:08:48.054 : en:Ian likes the spell
01:10:05.054 : en:Laurel encounters Pixie Dusters
01:11:11.054 : en:Barley talks about Dad
01:13:29.054 : en:The boys are in dangerous
01:15:57.054 : en:Back where they started
01:17:58.054 : en:Barley cannot give it up
01:20:25.054 : en:It's curse
01:22:43.054 : en:I am a mighty warrior
01:24:25.054 : en:Ian's decision
01:26:58.054 : en:What Ian see
01:30:06.054 : en:Ian back to his school
01:32:52.054 : en:End Credits
Релиз от:
-
[korsars.info].t28942.torrent 
Торрент: Зарегистрирован [ 2020-05-22 17:00 ] · 78FE38B8B13AA672B1E455974BBFB51A2C3F252A

Скачать .torrent

Скачать .torrent

16 KB

Статус: проверено
.torrent скачан: 0 раз
Размер: 12,48 GB
Правила
DOMINION(Вчера, в 04:44)
Похожие темы

[Профиль] [ЛС]
Показать сообщения:    
Ответить на тему

Текущее время: 25-Май 20:27

Часовой пояс: UTC + 4



Вы не можете начинать темы
Вы не можете отвечать на сообщения
Вы не можете редактировать свои сообщения
Вы не можете удалять свои сообщения
Вы не можете голосовать в опросах
Вы не можете прикреплять файлы к сообщениям
Вы можете скачивать файлы
Анализ сайта korsars.info Яндекс.Метрика