Паразиты / Parasite / Gisaengchung (2019) BDRip 720p | D, P, A | iTunes

Ответить на тему
Статистика раздачи [Обновить пиров]
Размер:  5,26 GB   |    Зарегистрирован:  3 дня   |    .torrent скачан:  1 раз
Раздают:  1096  [  0 KB/s  ]   Качают:  15  [  0 KB/s  ]   Подробная статистика пиров
 
   
 
 
Автор Сообщение

4udaki ®

Онлайн

Медали


Пол: Мужской

Стаж: 5 лет 6 месяцев

Наличие запрета:

Сообщений: 6874

Откуда: korsars.info

Отдача: 2 Mb/s

Загрузка: 20 Mb/s

Нажми

Создавать темы 22-Май-2020 21:00

[Цитировать]

Информация о фильме
Название: Паразиты
Оригинальное название: Gisaengchung
Год выхода: 2019
Жанр: Триллер, комедия, драма
Режиссер: Чжун Хо Пон
В ролях: Кан Хо Сон, Сон Гён Ли, Ё Чжон Чо, У Шик Чхве, Со Дам Пак, Хе Джин Чан, Джи Со Чон, Хён Джун Чон, Джон Ын Ли, Со Чжун Пак
О фильме:
Обычное корейское семейство жизнь не балует. Приходится жить в сыром грязном полуподвале, воровать интернет у соседей и перебиваться случайными подработками. Однажды друг сына семейства, уезжая на стажировку за границу, предлагает тому заменить его и поработать репетитором у старшеклассницы в богатой семье Пак. Подделав диплом о высшем образовании, парень отправляется в шикарный дизайнерский особняк и производит на хозяйку дома хорошее впечатление. Тут же ему в голову приходит необычный план по трудоустройству сестры.

Страна: Корея Южная
Студия: Barunson E&A, CJ E&M Film Financing & Investment Entertainment & Comics, CJ Entertainment
Продолжительность: 02:12:00
Перевод: Дублированный [iTunes], Профессиональный (многоголосый, закадровый) [HDRezka Studio], авторский одноголосый [Ю. Сербин]
Файл
Качество: BDRip 720p
Видео: AVC/H.264, 1280x536, 4100 Кbps, 23,976 fps
Звук:
Аудио 1: AC3, 6 ch, 384 Kbps - Русский (DUB)
Аудио 2: AC3, 2 ch, 192 Kbps - Русский (MVO HDRezka Studio)
Аудио 3: AC3, 2 ch, 384 Kbps - Русский (AVO Сербин)
Аудио 4: AC3, 6 ch, 640 Kbps - Корейский
Субтитры: русские (форс, полные), английские (полные)

x264 log & MediaInfo

x264 [info]: frame I:1158 Avg QP:13.09 size:137396
x264 [info]: frame P:39090 Avg QP:15.95 size: 44852
x264 [info]: frame B:149660 Avg QP:17.23 size: 14341
x264 [info]: consecutive B-frames: 1.7% 2.0% 5.7% 19.8% 17.7% 34.1% 9.4% 4.8% 1.9% 1.3% 1.5%
Общее
Уникальный идентификатор : 110022250053868194560935355473310671971 (0x52C583BC59E5134544064A9A31666463)
Полное имя : Gisaengchung (Parasite).2019.BDRip.720p.W.mkv
Формат : Matroska
Версия формата : Version 4
Размер файла : 5,26 Гбайт
Продолжительность : 2 ч. 12 м.
Общий поток : 5701 Кбит/сек
Название фильма : Gisaengchung (Parasite).2019.BDRip.720p.W
Дата кодирования : UTC 2019-11-30 04:55:49
Программа кодирования : mkvmerge v23.0.0 ('The Bride Said No') 64-bit
Библиотека кодирования : libebml v1.3.6 + libmatroska v1.4.9
Обложка : Yes
Attachments : cover_land.jpg / small_cover.jpg / small_cover_land.jpg / cover.jpg
Видео
Идентификатор : 1
Формат : AVC
Формат/Информация : Advanced Video Codec
Профиль формата : [email protected]
Настройки формата : CABAC / 12 Ref Frames
Параметр CABAC формата : Да
Параметр RefFrames формата : 12 кадров
Идентификатор кодека : V_MPEG4/ISO/AVC
Продолжительность : 2 ч. 12 м.
Битрейт : 4100 Кбит/сек
Ширина : 1280 пикселей
Высота : 536 пикселей
Соотношение сторон : 2,40:1
Режим частоты кадров : Постоянный
Частота кадров : 23,976 (23976/1000) кадра/сек
Цветовое пространство : YUV
Субдискретизация насыщенности : 4:2:0
Битовая глубина : 8 бит
Тип развёртки : Прогрессивная
Бит/(Пиксели*Кадры) : 0.249
Размер потока : 3,78 Гбайт (72%)
Заголовок : rip by -=walledol=-
Библиотека кодирования : x264 core 158 r2988 7817004
Настройки программы : cabac=1 / ref=12 / deblock=1:-3:-3 / analyse=0x3:0x133 / me=umh / subme=11 / psy=1 / psy_rd=1.00:0.10 / mixed_ref=1 / me_range=32 / chroma_me=1 / trellis=2 / 8x8dct=1 / cqm=0 / deadzone=21,11 / fast_pskip=0 / chroma_qp_offset=-3 / threads=12 / lookahead_threads=3 / sliced_threads=0 / nr=0 / decimate=1 / interlaced=0 / bluray_compat=0 / constrained_intra=0 / bframes=10 / b_pyramid=2 / b_adapt=2 / b_bias=0 / direct=3 / weightb=1 / open_gop=0 / weightp=2 / keyint=240 / keyint_min=23 / scenecut=40 / intra_refresh=0 / rc_lookahead=60 / rc=2pass / mbtree=0 / bitrate=4100 / ratetol=1.0 / qcomp=0.60 / qpmin=0 / qpmax=69 / qpstep=4 / cplxblur=20.0 / qblur=0.5 / vbv_maxrate=30000 / vbv_bufsize=33000 / nal_hrd=none / filler=0 / ip_ratio=1.40 / pb_ratio=1.30 / aq=3:0.80 / zones=182702,189908,q=40
Язык : Korean
Default : Да
Forced : Нет
Аудио #1
Идентификатор : 2
Формат : AC-3
Формат/Информация : Audio Coding 3
Коммерческое название : Dolby Digital
Идентификатор кодека : A_AC3
Продолжительность : 2 ч. 11 м.
Вид битрейта : Постоянный
Битрейт : 384 Кбит/сек
Каналы : 6 каналов
ChannelLayout : L R C LFE Ls Rs
Частота : 48,0 КГц
Частота кадров : 31,250 кадров/сек (1536 SPF)
Метод сжатия : С потерями
Размер потока : 362 Мбайт (7%)
Заголовок : DUB | iTunes
Язык : Russian
ServiceKind : Complete Main
Default : Да
Forced : Нет
Аудио #2
Идентификатор : 3
Формат : AC-3
Формат/Информация : Audio Coding 3
Коммерческое название : Dolby Digital
Идентификатор кодека : A_AC3
Продолжительность : 2 ч. 11 м.
Вид битрейта : Постоянный
Битрейт : 192 Кбит/сек
Каналы : 2 канала
ChannelLayout : L R
Частота : 48,0 КГц
Частота кадров : 31,250 кадров/сек (1536 SPF)
Метод сжатия : С потерями
Размер потока : 181 Мбайт (3%)
Заголовок : MVO (HDRezka Studio)
Язык : Russian
ServiceKind : Complete Main
Default : Нет
Forced : Нет
Аудио #3
Идентификатор : 4
Формат : AC-3
Формат/Информация : Audio Coding 3
Коммерческое название : Dolby Digital
Идентификатор кодека : A_AC3
Продолжительность : 2 ч. 11 м.
Вид битрейта : Постоянный
Битрейт : 384 Кбит/сек
Каналы : 2 канала
ChannelLayout : L R
Частота : 48,0 КГц
Частота кадров : 31,250 кадров/сек (1536 SPF)
Метод сжатия : С потерями
Размер потока : 362 Мбайт (7%)
Заголовок : AVO (Сербин)
Язык : Russian
ServiceKind : Complete Main
Default : Нет
Forced : Нет
Аудио #4
Идентификатор : 5
Формат : AC-3
Формат/Информация : Audio Coding 3
Коммерческое название : Dolby Digital
Идентификатор кодека : A_AC3
Продолжительность : 2 ч. 12 м.
Вид битрейта : Постоянный
Битрейт : 640 Кбит/сек
Каналы : 6 каналов
ChannelLayout : L R C LFE Ls Rs
Частота : 48,0 КГц
Частота кадров : 31,250 кадров/сек (1536 SPF)
Метод сжатия : С потерями
Размер потока : 604 Мбайт (11%)
Язык : Korean
ServiceKind : Complete Main
Default : Нет
Forced : Нет
Текст #1
Идентификатор : 6
Формат : UTF-8
Идентификатор кодека : S_TEXT/UTF8
Идентификатор кодека/Информация : UTF-8 Plain Text
Продолжительность : 1 ч. 51 м.
Битрейт : 0 бит/сек
ElementCount : 6
Размер потока : 458 байт (0%)
Заголовок : Forced
Язык : Russian
Default : Да
Forced : Нет
Текст #2
Идентификатор : 7
Формат : UTF-8
Идентификатор кодека : S_TEXT/UTF8
Идентификатор кодека/Информация : UTF-8 Plain Text
Продолжительность : 2 ч. 5 м.
Битрейт : 87 бит/сек
ElementCount : 1637
Размер потока : 80,4 Кбайт (0%)
Заголовок : Full (Focs)
Язык : Russian
Default : Нет
Forced : Нет
Текст #3
Идентификатор : 8
Формат : UTF-8
Идентификатор кодека : S_TEXT/UTF8
Идентификатор кодека/Информация : UTF-8 Plain Text
Продолжительность : 2 ч. 5 м.
Битрейт : 91 бит/сек
ElementCount : 1637
Размер потока : 83,9 Кбайт (0%)
Заголовок : Full (kornickolay)
Язык : Russian
Default : Нет
Forced : Нет
Текст #4
Идентификатор : 9
Формат : UTF-8
Идентификатор кодека : S_TEXT/UTF8
Идентификатор кодека/Информация : UTF-8 Plain Text
Продолжительность : 2 ч. 5 м.
Битрейт : 53 бит/сек
ElementCount : 1647
Размер потока : 49,3 Кбайт (0%)
Заголовок : Full
Язык : English
Default : Нет
Forced : Нет
Меню
00:00:00.000 : en:Chapter 1
00:05:44.802 : en:Chapter 2
00:12:16.610 : en:Chapter 3
00:20:35.484 : en:Chapter 4
00:29:21.926 : en:Chapter 5
00:37:05.348 : en:Chapter 6
00:46:19.943 : en:Chapter 7
00:53:52.979 : en:Chapter 8
01:02:55.646 : en:Chapter 9
01:12:10.242 : en:Chapter 10
01:23:25.834 : en:Chapter 11
01:32:19.659 : en:Chapter 12
01:41:22.284 : en:Chapter 13
01:48:21.912 : en:Chapter 14
01:56:07.502 : en:Chapter 15
02:07:06.744 : en:Chapter 16

Скриншоты

-
[korsars.info].t28945.torrent 
Торрент: Зарегистрирован [ 2020-05-22 21:00 ] · 4C0B64F19DEB0254180C04738DBAFB4CE6D0B91C

Скачать .torrent

Скачать .torrent

27 KB

Статус: проверено
.torrent скачан: 1 раз
Размер: 5,26 GB
Правила
Похожие темы

[Профиль] [ЛС]
Показать сообщения:    
Ответить на тему

Текущее время: 25-Май 21:21

Часовой пояс: UTC + 4



Вы не можете начинать темы
Вы не можете отвечать на сообщения
Вы не можете редактировать свои сообщения
Вы не можете удалять свои сообщения
Вы не можете голосовать в опросах
Вы не можете прикреплять файлы к сообщениям
Вы можете скачивать файлы
Анализ сайта korsars.info Яндекс.Метрика