Остров фантазий / Fantasy Island (2020) WEB-DL 720p | L1

Ответить на тему
Статистика раздачи [Обновить пиров]
Размер:  3,68 GB   |    Зарегистрирован:  2 дня 19 часов   |    .torrent скачан:  3 раза
Раздают:  118  [  0 KB/s  ]   Качают:  5  [  0 KB/s  ]   Подробная статистика пиров
 
   
 
 
Автор Сообщение

4udaki ®

Оффлайн

Медали


Пол: Мужской

Стаж: 5 лет 6 месяцев

Наличие запрета:

Сообщений: 6878

Откуда: korsars.info

Отдача: 2 Mb/s

Загрузка: 20 Mb/s

Нажми

Создавать темы 23-Май-2020 01:00

[Цитировать]

Информация о фильме
Название: Остров фантазий
Оригинальное название: Fantasy Island
Год выхода: 2020
Жанр: Ужасы, триллер, фантастика
Режиссер: Джефф Уодлоу
В ролях: Майкл Пенья, Мэгги Кью, Люси Хейл, Остин Стоуэлл, Портия Даблдэй, Джимми О. Ян, Райан Хансен, Майкл Рукер, Париса Фитц-Хенли, Майк Фогель
О фильме:
Загадочный мистер Рорк воплощает в жизнь самые смелые и тайные мечты своих постояльцев на роскошном труднодоступном тропическом курорте. Но будут ли готовы гости разгадать тайну острова и спасти свои жизни, когда их фантазии обернутся кошмаром?

Страна: США
Студия: Blumhouse Productions, Columbia Pictures Corporation
Продолжительность: 01:49:23
Перевод: Любительский одноголосый | Антон Кудрявцев
Файл
Кодек: AVC
Качество: WEB-DL 720p | AMZN
Видео: MPEG-4 AVC, 3985 Kбит/с, 1248x520, 23.976 кадр/с
Аудио #1: Русский (АС3, 2 ch, 192 Кбит/с, 48.0 KHz) Любительский (одноголосый, закадровый) Антон Кудрявцев
Аудио #2: Английский (АС3, 6 ch, 640 Кбит/с, 48.0 KHz)
Субтитры: Русские (Full), украинские (Full), английские (Full, SDH)
► Без Рекламы!
Трейлер

MediaInfo

Источник: Fantasy.Island.2020.Unrated.720p.AMZN.WEB-DL.DDP5.1.H.264-NTG
General
Unique ID : 216036383978027533966591890499737729956 (0xA2871816CF2DE8C2885782443843BBA4)
Complete name : Fantasy.Island.2020.AMZN.WEB-DL.720p.mkv
Format : Matroska
Format version : Version 4
File size : 3.68 GiB
Duration : 1 h 49 min
Overall bit rate : 4 819 kb/s
Encoded date : UTC 2020-04-14 14:40:36
Writing application : mkvmerge v7.1.0 ('Good Love') 64bit built on Jul 27 2014 13:06:55
Writing library : libebml v1.3.0 + libmatroska v1.4.1
Video
ID : 1
Format : AVC
Format/Info : Advanced Video Codec
Format profile : [email protected]
Format settings : CABAC / 4 Ref Frames
Format settings, CABAC : Yes
Format settings, Reference fra : 4 frames
Codec ID : V_MPEG4/ISO/AVC
Duration : 1 h 49 min
Bit rate mode : Constant
Bit rate : 3 985 kb/s
Nominal bit rate : 6 000 kb/s
Width : 1 248 pixels
Height : 520 pixels
Display aspect ratio : 2.40:1
Frame rate mode : Constant
Frame rate : 23.976 (24000/1001) FPS
Color space : YUV
Chroma subsampling : 4:2:0
Bit depth : 8 bits
Scan type : Progressive
Bits/(Pixel*Frame) : 0.256
Stream size : 3.04 GiB (83%)
Language : English
Default : Yes
Forced : No
Color range : Limited
Color primaries : BT.709
Transfer characteristics : BT.709
Matrix coefficients : BT.709
Audio #1
ID : 2
Format : AC-3
Format/Info : Audio Coding 3
Commercial name : Dolby Digital
Codec ID : A_AC3
Duration : 1 h 49 min
Bit rate mode : Constant
Bit rate : 192 kb/s
Channel(s) : 2 channels
Channel layout : L R
Sampling rate : 48.0 kHz
Frame rate : 31.250 FPS (1536 SPF)
Compression mode : Lossy
Stream size : 150 MiB (4%)
Title : Антон Кудрявцев
Language : Russian
Service kind : Complete Main
Default : Yes
Forced : No
Audio #2
ID : 3
Format : AC-3
Format/Info : Audio Coding 3
Commercial name : Dolby Digital
Codec ID : A_AC3
Duration : 1 h 49 min
Bit rate mode : Constant
Bit rate : 640 kb/s
Channel(s) : 6 channels
Channel layout : L R C LFE Ls Rs
Sampling rate : 48.0 kHz
Frame rate : 31.250 FPS (1536 SPF)
Compression mode : Lossy
Stream size : 501 MiB (13%)
Language : English
Service kind : Complete Main
Default : No
Forced : No
Text #1
ID : 4
Format : UTF-8
Codec ID : S_TEXT/UTF8
Codec ID/Info : UTF-8 Plain Text
Duration : 1 h 48 min
Bit rate : 96 b/s
Count of elements : 1409
Stream size : 76.5 KiB (0%)
Title : Екатерина Лисицина
Language : Russian
Default : No
Forced : No
Text #2
ID : 5
Format : UTF-8
Codec ID : S_TEXT/UTF8
Codec ID/Info : UTF-8 Plain Text
Duration : 1 h 48 min
Bit rate : 89 b/s
Count of elements : 1409
Stream size : 70.9 KiB (0%)
Title : Володимир Фатун
Language : Ukrainian
Default : No
Forced : No
Text #3
ID : 6
Format : UTF-8
Codec ID : S_TEXT/UTF8
Codec ID/Info : UTF-8 Plain Text
Duration : 1 h 46 min
Bit rate : 61 b/s
Count of elements : 1581
Stream size : 48.1 KiB (0%)
Language : English
Default : No
Forced : No
Text #4
ID : 7
Format : UTF-8
Codec ID : S_TEXT/UTF8
Codec ID/Info : UTF-8 Plain Text
Duration : 1 h 48 min
Bit rate : 67 b/s
Count of elements : 1930
Stream size : 53.5 KiB (0%)
Title : SDH
Language : English
Default : No
Forced : No

Скриншоты

-
[korsars.info].t28948.torrent 
Торрент: Зарегистрирован [ 2020-05-23 01:00 ] · 0DEAA4E5B59719F9D37253E5DCB9A5F24E9605C0

Скачать .torrent

Скачать .torrent

19 KB

Статус: проверено
.torrent скачан: 3 раз
Размер: 3,68 GB
Правила
Похожие темы

[Профиль] [ЛС]
Показать сообщения:    
Ответить на тему

Текущее время: 25-Май 20:37

Часовой пояс: UTC + 4



Вы не можете начинать темы
Вы не можете отвечать на сообщения
Вы не можете редактировать свои сообщения
Вы не можете удалять свои сообщения
Вы не можете голосовать в опросах
Вы не можете прикреплять файлы к сообщениям
Вы можете скачивать файлы
Анализ сайта korsars.info Яндекс.Метрика