Эспен в поисках Золотого замка / Askeladden - I Soria Moria slott (2019) WEB-DLRip-AVC от OlLanDGroup | iTunes

Ответить на тему
Статистика раздачи [Обновить пиров]
Размер:  745 MB   |    Зарегистрирован:  1 месяц 15 дней   |    .torrent скачан:  0 раз
Раздают:  19  [  0 KB/s  ]   Качают:  2  [  0 KB/s  ]   Подробная статистика пиров
 
   
 
 
Автор Сообщение

4udaki ®

Оффлайн

Медали


Пол: Мужской

Стаж: 5 лет 8 месяцев

Наличие запрета:

Сообщений: 7434

Откуда: korsars.info

Отдача: 2 Mb/s

Загрузка: 20 Mb/s

Нажми

Создавать темы 25-Май-2020 17:00

[Цитировать]

Информация о фильме
Название: Эспен в поисках Золотого замка
Оригинальное название: Askeladden - I Soria Moria slott
Год выпуска: 2019
Жанр: Фэнтези, приключения
Режиссер: Миккель Бренне Сандемусе
В ролях: Вебьёрн Энгер, Элли Харбоа, Мадс Сьёгард Петтерсен, Элиас Хольмен Сёренсен, Гэбриел Эндрюс, Гискен Арманд, Петронелла Баркер, Фроде Биркеланд, Гард Б. Эйдсвольд, Александра Гйерпен
О фильме: Король и королева отравлены. Единственный шанс на спасение - живая вода, спрятанная на краю света в стенах таинственного Золотого замка. Эспен с принцессой Кристин отправляются в путешествие, полное опасностей и приключений.

Страна: Норвегия
Студия: Maipo Film, Umedia
Продолжительность: 01:41:03
Перевод: Дублированный | iTunes
Файл
Формат: MKV
Качество: HDRip-AVC
Источник: |Askeladden.I.Soria.Moria.Slott.2019.1080p.Blu.Ray.x264|
Видео: 720x300 (2.40:1), 24 fps, x264 ~966 kbps avg, 0.186 bit/pixel
Звук: 48 kHz, HE-AAC, 2 ch, ~64 kbps avg | RUS
Субтитры: Норвежские (Full)

MediaInfo:

General
Unique ID : 130283883834947875099676973383015995107 (0x6203C3689A9BAF049259951D4C9C16E3)
Complete name : D:OlLanDGroupiTunesAskeladden.I.Soria.Moria.Slott.2019.HDRip(AVC).OlLanDGroup.mkv
Format : Matroska
Format version : Version 4
File size : 745 MiB
Duration : 1 h 41 min
Overall bit rate : 1 031 kb/s
Movie name : Askeladden.I.Soria.Moria.Slott.2019.HDRip(AVC).OlLanDGroup#Skandar#
Encoded date : UTC 2020-01-12 10:17:02
Writing application : mkvmerge v31.0.0 ('Dolores In A Shoestand') 64-bit
Writing library : libebml v1.3.6 + libmatroska v1.4.9
Video
ID : 1
Format : AVC
Format/Info : Advanced Video Codec
Format profile : [email protected]
Format settings : CABAC / 10 Ref Frames
Format settings, CABAC : Yes
Format settings, ReFrames : 10 frames
Codec ID : V_MPEG4/ISO/AVC
Duration : 1 h 41 min
Bit rate : 966 kb/s
Width : 720 pixels
Height : 300 pixels
Display aspect ratio : 2.40:1
Frame rate mode : Constant
Frame rate : 24.000 FPS
Color space : YUV
Chroma subsampling : 4:2:0
Bit depth : 8 bits
Scan type : Progressive
Bits/(Pixel*Frame) : 0.186
Stream size : 698 MiB (94%)
Title : Askeladden.I.Soria.Moria.Slott.2019.HDRip(AVC).OlLanDGroup#Skandar#
Writing library : x264 core 146 r2538 121396c
Encoding settings : cabac=1 / ref=10 / deblock=1:-3:-3 / analyse=0x3:0x133 / me=umh / subme=11 / psy=1 / psy_rd=0.97:0.05 / mixed_ref=1 / me_range=48 / chroma_me=1 / trellis=2 / 8x8dct=1 / cqm=0 / deadzone=21,11 / fast_pskip=0 / chroma_qp_offset=-3 / threads=6 / lookahead_threads=1 / sliced_threads=0 / nr=0 / decimate=0 / interlaced=0 / bluray_compat=0 / constrained_intra=0 / bframes=11 / b_pyramid=2 / b_adapt=2 / b_bias=0 / direct=3 / weightb=1 / open_gop=0 / weightp=2 / keyint=240 / keyint_min=23 / scenecut=40 / intra_refresh=0 / rc_lookahead=40 / rc=2pass / mbtree=0 / bitrate=966 / ratetol=1.0 / qcomp=0.60 / qpmin=0 / qpmax=69 / qpstep=4 / cplxblur=20.0 / qblur=0.5 / vbv_maxrate=50000 / vbv_bufsize=62500 / nal_hrd=none / filler=0 / ip_ratio=1.40 / pb_ratio=1.30 / aq=1:1.00
Language : Norwegian
Default : Yes
Forced : No
Audio
ID : 2
Format : AAC LC SBR
Format/Info : Advanced Audio Codec Low Complexity with Spectral Band Replication
Commercial name : HE-AAC
Format settings : Explicit
Codec ID : A_AAC-2
Duration : 1 h 41 min
Bit rate : 64.0 kb/s
Channel(s) : 2 channels
Channel layout : L R
Sampling rate : 48.0 kHz
Frame rate : 23.438 FPS (2048 SPF)
Compression mode : Lossy
Delay relative to video : 31 ms
Stream size : 46.3 MiB (6%)
Title : Dub | iTunes
Language : Russian
Default : Yes
Forced : No
Text
ID : 3
Format : UTF-8
Codec ID : S_TEXT/UTF8
Codec ID/Info : UTF-8 Plain Text
Duration : 1 h 40 min
Bit rate : 33 b/s
Count of elements : 664
Stream size : 24.5 KiB (0%)
Title : Full
Language : Norwegian
Default : No
Forced : No
Menu
00:00:00.000 : en:Chapter 01
00:09:59.708 : en:Chapter 02
00:19:59.583 : en:Chapter 03
00:29:59.833 : en:Chapter 04
00:40:00.000 : en:Chapter 05
00:49:59.583 : en:Chapter 06
00:59:59.583 : en:Chapter 07
01:09:59.958 : en:Chapter 08
01:19:59.708 : en:Chapter 09
01:29:59.666 : en:Chapter 10

Скриншоты

Релиз от: -
[korsars.info].t29011.torrent 
Торрент: Зарегистрирован [ 2020-05-25 17:00 ] · 5EF4E31AC48E0CCA3EFDB461434796B0E7F8C553

Скачать .torrent

Размер .torrent файла 16 KB

Статус: проверено
.torrent скачан: 0 раз
Размер: 745 MB
Правила
Похожие темы

[Профиль] [ЛС]
Показать сообщения:    
Ответить на тему

Текущее время: 10-Июл 16:55

Часовой пояс: UTC + 4



Вы не можете начинать темы
Вы не можете отвечать на сообщения
Вы не можете редактировать свои сообщения
Вы не можете удалять свои сообщения
Вы не можете голосовать в опросах
Вы не можете прикреплять файлы к сообщениям
Вы можете скачивать файлы
Анализ сайта korsars.info Яндекс.Метрика