Дека-данс / Deca-Dence [S01х01-11 из 12] (2020) WEBRip 1080p от KORSARS.INFO | StudioBand

Ответить на тему
Статистика раздачи [Обновить пиров]
Размер:  6,9 GB   |    Зарегистрирован:  3 дня   |    .torrent скачан:  79 раз
Раздают:  21  [  779 KB/s  ]   Качают:  24  [  410 KB/s  ]   Подробная статистика пиров
 
   
 
 
Автор Сообщение

4udaki ®

Оффлайн

Медали


Пол: Мужской

Стаж: 5 лет 10 месяцев

Наличие запрета:

Сообщений: 7960

Откуда: korsars.info

Отдача: 2 Mb/s

Загрузка: 20 Mb/s

Нажми


Скачать Adguard бесплатно

Создавать темы 08-Июл-2020 19:19

[Цитировать]

Дека-данс / Deca-Dence-Год выпуска: 2020
Страна:
Япония
Жанр: экшен, фантастика, приключения
Продолжительность: ~ 00:24:00 (серия)
Перевод: Профессиональный (многоголосый, закадровый) | StudioBand [Wakanim]
Режиссёр: Юдзуру Татикава
Субтитры: Вшитые (на надписи)-Рейтинг:
-Релиз от: -Описание:
Прошло много лет с тех пор, как из-за прибытия на Землю неизвестной формы жизни, получившей название «Гадолл», человечество оказалось под угрозой вымирания. Выжившие после внезапной атаки люди построили огромную крепость «Дека-Данс», где и укрылись, разделившись на воинов и тех, кто выполняет функцию поддержки солдат.
Однажды Нацумэ, мечтающая сражаться, встречается с Кабураги, который давно отошёл от битв и теперь занимается ремонтом брони. И эта случайная встреча становится событием, которое способно изменить мир! © Shikimori-Качество: WEBRip 1080p
Формат: MKV (MPEG-4 AVC)
Видео: 1920x1080, ~3 637 kb/s, 23.976 FPS
Аудио RUS: AAC LC, 320 kb/s, 2 channels, 48.0 kHz-

MediaInfo

General
Unique ID                   : 313761171272583154227605346486268393862 (0xEC0C34197E22C36AD1D0226448FAF986)
Complete name               : [KORSARS]_Deca-Dence.[S01].WEBRip.1080p._[StudioBand]\[KORSARS]_Deca-Dence.[S01E01].WEBRip.1080p._[StudioBand].mkv
Format                      : Matroska
Format version              : Version 4
File size                   : 670 MiB
Duration                    : 23 min 39 s
Overall bit rate            : 3 960 kb/s
Movie name                  : [KORSARS]_Deca-Dence.[S01E01].WEBRip.1080p._[StudioBand]
Encoded date                : UTC 2020-07-08 15:18:07
Writing application         : mkvmerge v48.0.0 ('Fortress Around Your Heart') 64-bit
Writing library             : libebml v1.4.0 + libmatroska v1.6.0
Video
ID                          : 1
Format                      : AVC
Format/Info                 : Advanced Video Codec
Format profile              : [email protected]
Format settings             : CABAC / 4 Ref Frames
Format settings, CABAC      : Yes
Format settings, Reference  : 4 frames
Codec ID                    : V_MPEG4/ISO/AVC
Duration                    : 23 min 39 s
Bit rate                    : 3 637 kb/s
Width                       : 1 920 pixels
Height                      : 1 080 pixels
Display aspect ratio        : 16:9
Frame rate mode             : Constant
Frame rate                  : 23.976 (24000/1001) FPS
Color space                 : YUV
Chroma subsampling          : 4:2:0
Bit depth                   : 8 bits
Scan type                   : Progressive
Bits/(Pixel*Frame)          : 0.073
Stream size                 : 616 MiB (92%)
Title                       : [KORSARS]_Deca-Dence.[S01E01].WEBRip.1080p._[StudioBand]
Writing library             : x264 core 157 r2935 545de2f
Encoding settings           : cabac=1 / ref=3 / deblock=1:0:0 / analyse=0x1:0x111 / me=hex / subme=7 / psy=1 / psy_rd=1.00:0.00 / mixed_ref=1 / me_range=16 / chroma_me=1 / trellis=1 / 8x8dct=0 / cqm=0 / deadzone=21,11 / fast_pskip=1 / chroma_qp_offset=-2 / threads=9 / lookahead_threads=1 / sliced_threads=0 / nr=0 / decimate=1 / interlaced=0 / bluray_compat=0 / constrained_intra=0 / bframes=3 / b_pyramid=2 / b_adapt=1 / b_bias=0 / direct=1 / weightb=1 / open_gop=0 / weightp=2 / keyint=240 / keyint_min=24 / scenecut=40 / intra_refresh=0 / rc_lookahead=40 / rc=crf / mbtree=1 / crf=20.0 / qcomp=0.60 / qpmin=0 / qpmax=69 / qpstep=4 / vbv_maxrate=20000 / vbv_bufsize=25000 / crf_max=0.0 / nal_hrd=none / filler=0 / ip_ratio=1.40 / aq=1:1.00
Default                     : Yes
Forced                      : No
Color range                 : Limited
Color primaries             : BT.709
Transfer characteristics    : BT.709
Matrix coefficients         : BT.709
Audio
ID                          : 2
Format                      : AAC LC
Format/Info                 : Advanced Audio Codec Low Complexity
Codec ID                    : A_AAC-2
Duration                    : 23 min 39 s
Bit rate                    : 320 kb/s
Channel(s)                  : 2 channels
Channel layout              : L R
Sampling rate               : 48.0 kHz
Frame rate                  : 46.875 FPS (1024 SPF)
Compression mode            : Lossy
Delay relative to video     : -21 ms
Stream size                 : 54.2 MiB (8%)
Title                       : [KORSARS]_Deca-Dence.[S01E01].WEBRip.1080p._[StudioBand]
Language                    : Russian
Default                     : Yes
Forced                      : No
--Финансовая помощь автору -16.09.2020 обновлено. Добавлена 11-я серия.
[korsars.info].t30152.torrent 
Торрент: Зарегистрирован [ 2020-09-16 19:56 ] · C18A62CD3B37CA869025276C9BF9BB60F2996584

Скачать .torrent

Размер .torrent файла 19 KB

Статус: проверено
.torrent скачан: 79 раз
Размер: 6,9 GB
Правила
Rentgen(08-Июл-20), Reventor(11-Июл-20), loe3df(16-Июл-20), ivshafr(Сегодня, в 00:48)



Последний раз редактировалось: 4udaki (2020-09-16 19:56), всего редактировалось 10 раз(а)
[Профиль] [ЛС]

Rentgen

Оффлайн

Медали


Пол: Не указан

Стаж: 7 месяцев 24 дня

Наличие запрета:

Сообщений: 44

Отдача: не определено

Загрузка: не определено

Нажми


Скачать Adguard бесплатно

Создавать темы 15-Июл-2020 20:26 (спустя 7 дней)

[Цитировать]

Известно ли что-то про озвучку от CrunchyRoll на сериал Re:Zero kara Hajimeru Isekai Seikatsu 2nd Season?
В плане озвучивают ли вообще, в сети нигде не видел пока даже примеров, только субтитры.-З.ы. к сожалению взяться за просмотр данного сериала всё ни как не удаётся, то трейлер оттолкнул сперва, то пересмотр прошлых релизов в BD-версии.


Последний раз редактировалось: Rentgen (2020-07-17 22:27), всего редактировалось 1 раз
[Профиль] [ЛС]

4udaki ®

Оффлайн

Медали


Пол: Мужской

Стаж: 5 лет 10 месяцев

Наличие запрета:

Сообщений: 7960

Откуда: korsars.info

Отдача: 2 Mb/s

Загрузка: 20 Mb/s

Нажми


Скачать Adguard бесплатно

Создавать темы 15-Июл-2020 21:06 (спустя 40 минут)

[Цитировать]

37211
Известно ли что-то про озвучку от CrunchyRoll на сериал Re:Zero kara Hajimeru Isekai Seikatsu 2nd Season?
В плане озвучивают ли вообще, в сети нигде не видел пока даже примеров, только субтитры.
Лично я за кранчами вообще не слежу, но можешь поинтересоваться у loe3df
[Профиль] [ЛС]

loe3df

Оффлайн

Медали
VIPАктивный раздающий 1


Пол: Не указан

Стаж: 8 месяцев 5 дней

Наличие запрета:

Сообщений: 66

Отдача: не определено

Загрузка: не определено

Нажми


Скачать Adguard бесплатно

Создавать темы 16-Июл-2020 00:22 (спустя 3 часа)

[Цитировать]

37211Известно ли что-то про озвучку от CrunchyRoll на сериал Re:Zero kara Hajimeru Isekai Seikatsu 2nd Season?
В плане озвучивают ли вообще, в сети нигде не видел пока даже примеров, только субтитры.
З.ы. к сожалению взяться за просмотр данного сериала всё ни как не удаётся, то трейлер оттолкнул сперва, то пересмотр прошлых релизов в BD-версии.

Скриншоты

[Профиль] [ЛС]

ssegga71

Оффлайн

Медали


Пол: Не указан

Стаж: 3 месяца 8 дней

Наличие запрета:

Сообщений: 3

Отдача: не определено

Загрузка: не определено

Нажми


Скачать Adguard бесплатно

Создавать темы 17-Июл-2020 18:27 (спустя 1 день 18 часов)

[Цитировать]

37211Известно ли что-то про озвучку от CrunchyRoll на сериал Re:Zero kara Hajimeru Isekai Seikatsu 2nd Season?
В плане озвучивают ли вообще, в сети нигде не видел пока даже примеров, только субтитры.
З.ы. к сожалению взяться за просмотр данного сериала всё ни как не удаётся, то трейлер оттолкнул сперва, то пересмотр прошлых релизов в BD-версии.
есть от анилибрии озвучка, ничего так себе , нормалды .
[Профиль] [ЛС]

Rentgen

Оффлайн

Медали


Пол: Не указан

Стаж: 7 месяцев 24 дня

Наличие запрета:

Сообщений: 44

Отдача: не определено

Загрузка: не определено

Нажми


Скачать Adguard бесплатно

Создавать темы 17-Июл-2020 22:19 (спустя 3 часа)

[Цитировать]

ssegga71
Продолжая оффтопить.
Я как бы в курсе, да и не их вариант мне сейчас больше всего нравится, а от Animedia.tv.
И вопрос был, конкретно про то что уже давно отвечено в сообщении выше пользователем loe3df.
[Профиль] [ЛС]
Показать сообщения:    
Ответить на тему

Текущее время: 20-Сен 06:05

Часовой пояс: UTC + 4



Вы не можете начинать темы
Вы не можете отвечать на сообщения
Вы не можете редактировать свои сообщения
Вы не можете удалять свои сообщения
Вы не можете голосовать в опросах
Вы не можете прикреплять файлы к сообщениям
Вы можете скачивать файлы
Анализ сайта korsars.info Яндекс.Метрика