Вивариум / Vivarium (2019) WEBRip 720p | P, A

Ответить на тему
Статистика раздачи [Обновить пиров]
Размер:  3,91 GB   |    Зарегистрирован:  29 дней   |    .torrent скачан:  8 раз
Раздают:  73  [  0 KB/s  ]   Качают:  5  [  0 KB/s  ]   Подробная статистика пиров
 
   
 
 
Автор Сообщение

4udaki ®

Оффлайн

Медали


Пол: Мужской

Стаж: 5 лет 10 месяцев

Наличие запрета:

Сообщений: 7948

Откуда: korsars.info

Отдача: 2 Mb/s

Загрузка: 20 Mb/s

Нажми


Скачать Adguard бесплатно

Создавать темы 23-Авг-2020 13:00

[Цитировать]

Информация о фильме
Название: Вивариум
Оригинальное название: Vivarium
Год выхода: 2019
Жанр: Фантастика, драма
Режиссер: Лоркан Финнеган
В ролях: Имоджен Путс, Даниэль Райан, Молли Макканн, Джесси Айзенберг, Джонатан Арис, Сенан Дженнингс, Инна Хардвик, Ольга Верли, Джек Хадсон, Майкл Макгьюн, Марк Куигли
О фильме:
В поисках идеального дома молодая пара знакомится со странным агентом по недвижимости. Он привозит их в новый поселок в пригороде, а затем исчезает. Том и Джемма с ужасом понимают, что они абсолютно одни в этом жутковато-стерильном лабиринте одинаковых домов и что из него нет выхода. Вскоре их одиночество будет прервано появлением у дверей коробки с младенцем, который похож на человека лишь внешне…

Страна: Ирландия, Дания, Бельгия
Студия: Lovely Productions, Fantastic Films, Frakas Productions
Продолжительность: 01:38:34
Перевод: Профессиональный многоголосый, Aвторский одноголосый
Файл
Кодек: AVC
Качество: WEBRip 720p | Vivarium.2019.1080p.AMZN.WEB-DL.DDP5.1.H.264-NTG
Видео: MPEG-4 AVC, 4200 Kбит/с, 1280x534, 23.976 кадр/с
Аудио #1: Русский (АС3, 6 ch, 448 Кбит/с, 48.0 KHz) Профессиональный (многоголосый, закадровый) HDRezka Studio
Аудио #2: Русский (АС3, 6 ch, 384 Кбит/с, 48.0 KHz) Aвторский (одноголосый, закадровый) А.Важенин (BadBajo)
Аудио #3: Английский (АС3, 6 ch, 640 Кбит/с, 48.0 KHz)
Субтитры: Русские (Forced, Full), английские (Full, SDH)
► Без Рекламы!
Трейлер

MediaInfo

Источник: Vivarium.2019.1080p.AMZN.WEB-DL.DDP5.1.H.264-NTG
General
Unique ID : 246396059550715734553766890585596627604 (0xB95E27A947F55385948FD2B568D80A94)
Complete name : Vivarium.2019.AMZN..WEBRip.720p.mkv
Format : Matroska
Format version : Version 4
File size : 3.91 GiB
Duration : 1 h 38 min
Overall bit rate : 5 672 kb/s
Movie name : Vivarium.2019.WEB-DL.1080p.W
Encoded date : UTC 2020-03-30 16:28:41
Writing application : mkvmerge v7.1.0 ('Good Love') 64bit built on Jul 27 2014 13:06:55
Writing library : libebml v1.3.0 + libmatroska v1.4.1
Video
ID : 1
Format : AVC
Format/Info : Advanced Video Codec
Format profile : [email protected]
Format settings : CABAC / 9 Ref Frames
Format settings, CABAC : Yes
Format settings, Reference fra : 9 frames
Codec ID : V_MPEG4/ISO/AVC
Duration : 1 h 38 min
Bit rate : 4 200 kb/s
Width : 1 280 pixels
Height : 534 pixels
Display aspect ratio : 2.40:1
Frame rate mode : Constant
Frame rate : 23.976 (24000/1001) FPS
Color space : YUV
Chroma subsampling : 4:2:0
Bit depth : 8 bits
Scan type : Progressive
Bits/(Pixel*Frame) : 0.256
Stream size : 2.89 GiB (74%)
Writing library : x264 core 157 r2958 57baac4
Encoding settings : cabac=1 / ref=9 / deblock=1:-3:-3 / analyse=0x3:0x133 / me=umh / subme=11 / psy=1 / psy_rd=1.00:0.00 / mixed_ref=1 / me_range=48 / chroma_me=1 / trellis=2 / 8x8dct=1 / cqm=0 / deadzone=21,11 / fast_pskip=1 / chroma_qp_offset=-2 / threads=17 / lookahead_threads=4 / sliced_threads=0 / nr=0 / decimate=1 / interlaced=0 / bluray_compat=0 / constrained_intra=0 / bframes=10 / b_pyramid=2 / b_adapt=2 / b_bias=0 / direct=3 / weightb=1 / open_gop=0 / weightp=2 / keyint=240 / keyint_min=24 / scenecut=40 / intra_refresh=0 / rc_lookahead=60 / rc=2pass / mbtree=1 / bitrate=4200 / ratetol=1.0 / qcomp=0.60 / qpmin=0 / qpmax=69 / qpstep=4 / cplxblur=20.0 / qblur=0.5 / ip_ratio=1.40 / aq=1:1.00
Language : English
Default : Yes
Forced : No
Color range : Limited
Color primaries : BT.709
Transfer characteristics : BT.709
Matrix coefficients : BT.709
Audio #1
ID : 2
Format : AC-3
Format/Info : Audio Coding 3
Commercial name : Dolby Digital
Codec ID : A_AC3
Duration : 1 h 38 min
Bit rate mode : Constant
Bit rate : 448 kb/s
Channel(s) : 6 channels
Channel layout : L R C LFE Ls Rs
Sampling rate : 48.0 kHz
Frame rate : 31.250 FPS (1536 SPF)
Compression mode : Lossy
Stream size : 316 MiB (8%)
Title : MVO | HDRezka Studio
Language : Russian
Service kind : Complete Main
Default : Yes
Forced : No
Audio #2
ID : 3
Format : AC-3
Format/Info : Audio Coding 3
Commercial name : Dolby Digital
Codec ID : A_AC3
Duration : 1 h 38 min
Bit rate mode : Constant
Bit rate : 384 kb/s
Channel(s) : 6 channels
Channel layout : L R C LFE Ls Rs
Sampling rate : 48.0 kHz
Frame rate : 31.250 FPS (1536 SPF)
Compression mode : Lossy
Stream size : 271 MiB (7%)
Title : AVO | А.Важенин (BadBajo)
Language : Russian
Service kind : Complete Main
Default : No
Forced : No
Audio #3
ID : 4
Format : AC-3
Format/Info : Audio Coding 3
Commercial name : Dolby Digital
Codec ID : A_AC3
Duration : 1 h 38 min
Bit rate mode : Constant
Bit rate : 640 kb/s
Channel(s) : 6 channels
Channel layout : L R C LFE Ls Rs
Sampling rate : 48.0 kHz
Frame rate : 31.250 FPS (1536 SPF)
Compression mode : Lossy
Stream size : 451 MiB (11%)
Language : English
Service kind : Complete Main
Default : No
Forced : No
Text #1
ID : 5
Format : UTF-8
Codec ID : S_TEXT/UTF8
Codec ID/Info : UTF-8 Plain Text
Duration : 1 h 27 min
Bit rate : 0 b/s
Count of elements : 6
Stream size : 334 Bytes (0%)
Title : Forced
Language : Russian
Default : Yes
Forced : No
Text #2
ID : 6
Format : UTF-8
Codec ID : S_TEXT/UTF8
Codec ID/Info : UTF-8 Plain Text
Duration : 1 h 27 min
Bit rate : 37 b/s
Count of elements : 610
Stream size : 24.0 KiB (0%)
Title : MENINSUB
Language : Russian
Default : No
Forced : No
Text #3
ID : 7
Format : UTF-8
Codec ID : S_TEXT/UTF8
Codec ID/Info : UTF-8 Plain Text
Duration : 1 h 33 min
Bit rate : 24 b/s
Count of elements : 689
Stream size : 16.8 KiB (0%)
Language : English
Default : No
Forced : No
Text #4
ID : 8
Format : UTF-8
Codec ID : S_TEXT/UTF8
Codec ID/Info : UTF-8 Plain Text
Duration : 1 h 34 min
Bit rate : 31 b/s
Count of elements : 876
Stream size : 21.5 KiB (0%)
Title : SDH
Language : English
Default : No
Forced : No
Menu
00:00:00.000 : :Chapter 1
00:19:38.803 : :Chapter 2
00:44:14.487 : :Chapter 3
01:03:11.832 : :Chapter 4
01:31:43.250 : :Chapter 5
-
[korsars.info].t31359.torrent 
Торрент: Зарегистрирован [ 2020-08-23 13:00 ] · 0545DC2E840F64F2CF01D260D0CCAD9FA5D6688A

Скачать .torrent

Размер .torrent файла 20 KB

Статус: проверено
.torrent скачан: 8 раз
Размер: 3,91 GB
Правила
Похожие темы

[Профиль] [ЛС]
Показать сообщения:    
Ответить на тему

Текущее время: 21-Сен 23:54

Часовой пояс: UTC + 4



Вы не можете начинать темы
Вы не можете отвечать на сообщения
Вы не можете редактировать свои сообщения
Вы не можете удалять свои сообщения
Вы не можете голосовать в опросах
Вы не можете прикреплять файлы к сообщениям
Вы можете скачивать файлы
Анализ сайта korsars.info Яндекс.Метрика