Пацаны / The Boys [02x00-05 из 08] (2020) WEB-DL 1080p | Flarrow Films

Ответить на тему
Статистика раздачи [Обновить пиров]
Размер:  17,19 GB   |    Зарегистрирован:  3 дня   |    .torrent скачан:  1 раз
Раздают:  24  [  0 KB/s  ]   Качают:  33  [  0 KB/s  ]   Подробная статистика пиров
 
   
 
 
Автор Сообщение

flarrowfilms ®

Оффлайн

Медали
VIPДруг трекераСупер Мега Контер Квейк


Пол: Не указан

Стаж: 5 месяцев 29 дней

Наличие запрета:

Сообщений: 39

Отдача: 5 Mb/s

Загрузка: 5 Mb/s

Нажми


Скачать Adguard бесплатно

Создавать темы 07-Сен-2020 02:18

[Цитировать]

Информация о фильме
Название: Пацаны
Оригинальное название: The Boys
Год выхода: 2019
Жанр: фантастика, боевик, комедия, криминал
Режиссер: Филип Сгриккиа, Дэниэл Эттиэс, Эрик Крипке
В ролях: Карл Урбан, Доминик МакЭллигот, Эрин Мориарти, Элизабет Шу, Энтони Старр, Дженнифер Эспозито, Саймон Пегг, Шантель Ван Сантен, Хэйли Джоэл Осмент, Чейс Кроуфорд
О фильме:
Действие сериала разворачивается в мире, где существуют супергерои. Именно они являются настоящими звездами. Их все знают и обожают. Но за идеальным фасадом скрывается гораздо более мрачный мир наркотиков и секса, а большинство героев — в жизни не самые приятные люди. Противостоит им отряд, неофициально известный как «Пацаны».

Страна: США
Продолжительность: 01:00:00 (серия)
Перевод: Профессиональный (многоголосый, закадровый) | Flarrow Films
Роли озвучивали: Алексей Ядренников, Ахилл Намазов, Денис Кузьмичёв, Евгений Леонов, Семён Евсиков, Анастасия Скачкова, Катерина Смирнова, Алина Лихачева и Рута Новикова
Файл
Формат: MKV
Кодек: MPEG-4 AVC
Качество: WEB-DL 1080p
Видео: 1920х800, ~ 7 535 kb/s, 23.976 FPS, 8 bits
Звук: AC-3, 320 kb/s, 2 channels, 48.0 kHz
Субтитры: русские (отключаемые UTF-8)-

MediaInfo

1-я серия
General
Unique ID : 7543550755008052374205635564183942535 (0x5ACD5C46F506A4810E5FB1548F6F587)
Complete name : C:\Flarrow\The.Boys.S02.1080p.Flarrow.Films\The.Boys.S02E01.mkv
Format : Matroska
Format version : Version 4
File size : 3.45 GiB
Duration : 1 h 2 min
Overall bit rate : 7 855 kb/s
Encoded date : UTC 2020-09-06 18:12:56
Writing application : mkvmerge v32.0.0 ('Astral Progressions') 64-bit
Writing library : libebml v1.3.7 + libmatroska v1.5.0
Video
ID : 1
Format : AVC
Format/Info : Advanced Video Codec
Format profile : [email protected]
Format settings : CABAC / 4 Ref Frames
Format settings, CABAC : Yes
Format settings, Reference : 4 frames
Codec ID : V_MPEG4/ISO/AVC
Duration : 1 h 2 min
Bit rate mode : Constant
Bit rate : 7 535 kb/s
Nominal bit rate : 10 000 kb/s
Width : 1 920 pixels
Height : 800 pixels
Display aspect ratio : 2.40:1
Frame rate mode : Constant
Frame rate : 23.976 (24000/1001) FPS
Color space : YUV
Chroma subsampling : 4:2:0
Bit depth : 8 bits
Scan type : Progressive
Bits/(Pixel*Frame) : 0.205
Stream size : 3.31 GiB (96%)
Default : Yes
Forced : No
Color range : Limited
Color primaries : BT.709
Transfer characteristics : BT.709
Matrix coefficients : BT.709
Audio
ID : 2
Format : AC-3
Format/Info : Audio Coding 3
Commercial name : Dolby Digital
Codec ID : A_AC3
Duration : 1 h 2 min
Bit rate mode : Constant
Bit rate : 320 kb/s
Channel(s) : 2 channels
Channel layout : L R
Sampling rate : 48.0 kHz
Frame rate : 31.250 FPS (1536 SPF)
Compression mode : Lossy
Stream size : 144 MiB (4%)
Language : Russian
Service kind : Complete Main
Default : Yes
Forced : No
Text
ID : 3
Format : UTF-8
Codec ID : S_TEXT/UTF8
Codec ID/Info : UTF-8 Plain Text
Duration : 1 h 2 min
Bit rate : 107 b/s
Count of elements : 905
Stream size : 49.3 KiB (0%)
Language : Russian
Default : Yes
Forced : No
2-я серия
General
ID : 3
Format : UTF-8
Codec ID : S_TEXT/UTF8
Codec ID/Info : UTF-8 Plain Text
Duration : 1 h 2 min
Bit rate : 107 b/s
Count of elements : 905
Stream size : 49.3 KiB (0%)
Language : Russian
Default : Yes
Forced : No
Video
ID : 1
Format : AVC
Format/Info : Advanced Video Codec
Format profile : [email protected]
Format settings : CABAC / 4 Ref Frames
Format settings, CABAC : Yes
Format settings, Reference : 4 frames
Codec ID : V_MPEG4/ISO/AVC
Duration : 59 min 25 s
Bit rate mode : Constant
Bit rate : 7 313 kb/s
Nominal bit rate : 10 000 kb/s
Width : 1 920 pixels
Height : 800 pixels
Display aspect ratio : 2.40:1
Frame rate mode : Constant
Frame rate : 23.976 (24000/1001) FPS
Color space : YUV
Chroma subsampling : 4:2:0
Bit depth : 8 bits
Scan type : Progressive
Bits/(Pixel*Frame) : 0.199
Stream size : 3.04 GiB (96%)
Default : Yes
Forced : No
Color range : Limited
Color primaries : BT.709
Transfer characteristics : BT.709
Matrix coefficients : BT.709
Audio
ID : 2
Format : AC-3
Format/Info : Audio Coding 3
Commercial name : Dolby Digital
Codec ID : A_AC3
Duration : 59 min 26 s
Bit rate mode : Constant
Bit rate : 320 kb/s
Channel(s) : 2 channels
Channel layout : L R
Sampling rate : 48.0 kHz
Frame rate : 31.250 FPS (1536 SPF)
Compression mode : Lossy
Stream size : 136 MiB (4%)
Language : Russian
Service kind : Complete Main
Default : Yes
Forced : No
Text
ID : 3
Format : UTF-8
Codec ID : S_TEXT/UTF8
Codec ID/Info : UTF-8 Plain Text
Duration : 58 min 36 s
Bit rate : 91 b/s
Count of elements : 669
Stream size : 39.1 KiB (0%)
Language : Russian
Default : Yes
Forced : No
---Релиз от: Flarrow Films
Примечание: Без интро Flarrow Films- - -

19.09.2020 обновлено. Добавлена 5-я серия.

[korsars.info].t31728.torrent 
Торрент: Зарегистрирован [ 2020-09-19 21:30 ] · 2A676B35F55C5CA3FEA75083CB67934932015F3B

Скачать .torrent

Размер .torrent файла 43 KB

Статус: проверено
.torrent скачан: 1 раз
Размер: 17,19 GB
Правила
Skorp10n(07-Сен-20), 4udaki(13-Сен-20)
Похожие темы

[Профиль] [ЛС]
Показать сообщения:    
Ответить на тему

Текущее время: 23-Сен 06:26

Часовой пояс: UTC + 4



Вы не можете начинать темы
Вы не можете отвечать на сообщения
Вы не можете редактировать свои сообщения
Вы не можете удалять свои сообщения
Вы не можете голосовать в опросах
Вы не можете прикреплять файлы к сообщениям
Вы можете скачивать файлы
Анализ сайта korsars.info Яндекс.Метрика