Зов предков / The Call of the Wild (2020) WEB-DL 1080p от селезень | D, P | iTunes

Ответить на тему
Статистика раздачи [Обновить пиров]
Размер:  9,11 GB   |    Зарегистрирован:  13 дней   |    .torrent скачан:  3 раза
Раздают:  429  [  0 KB/s  ]   Качают:  7  [  0 KB/s  ]   Подробная статистика пиров
 
   
 
 
Автор Сообщение

4udaki ®

Оффлайн

Медали


Пол: Мужской

Стаж: 5 лет 10 месяцев

Наличие запрета:

Сообщений: 7981

Откуда: korsars.info

Отдача: 2 Mb/s

Загрузка: 20 Mb/s

Нажми


Скачать Adguard бесплатно

Создавать темы 09-Сен-2020 09:00

[Цитировать]

Информация о фильме
Название: Зов предков
Оригинальное название: The Call of the Wild
Год выхода: 2020
Жанр: Драма, приключения, семейный
Режиссер: Крис Сандерс
В ролях: Карен Гиллан, Харрисон Форд, Кара Ги, Дэн Стивенс, Брэдли Уитфорд, Джин Луиса Келли, Майкл Хорс, Мика Фицджералд, Терри Нотари, Омар Си, Колин Вуделл, Абрахам Бенруби

О фильме: История Бэка, дружелюбного пса, чья размеренная домашняя жизнь перевернулась с ног на голову во времена золотой лихорадки в 1880-х, когда его вырвали из дома в Калифорнии и перевезли в дикую и холодную Аляску. Будучи новичком в упряжке почтовой службы, а впоследствии лидером, Бак попадает в невероятное приключение, находит свое место в мире и становится хозяином своей жизни.
Страна: США, Канада
Студия: 3 Arts Entertainment, Twentieth Century Fox Animation, Twentieth Century
Продолжительность: 01:39:42
Перевод(ы):
#1: Дублированный | iTunes

#2: Профессиональный многоголосый | HDRezka Studio
Качество: BDRip 1080p
Видео: MPEG-4 AVC, 1920x804, 11.6 Mbit/s, 23.976 fps
Аудио #01: 48 kHz, AC3, 5.1, 384 Kbps | iTunes | RUS |
Аудио #02: 48 kHz, AC3, 5.1, 448 Kbps | HDRezka Studio | RUS |
Аудио #03: 48 kHz, AC3, 5.1, 640 Kbps | Оригинал | ENG |
Субтитры: Русские (Forced, full (iTunes), full (Enigma)), английские--

MI

General
Unique ID : 163832079058262606046488262804632965739 (0x7B40E9230AD1B849DF1733153BE7126B)
Complete name : E:Video111BackupThe.Call.of.the.Wild.2020.D.MVO.BDRip.1080p.seleZen.mkv
Format : Matroska
Format version : Version 4
File size : 9.11 GiB
Duration : 1 h 39 min
Overall bit rate : 13.1 Mb/s
Movie name : The Call of the Wild 2020 from селезень
Encoded date : UTC 2020-05-01 19:39:49
Writing application : mkvmerge v40.0.0 ('Old Town Road + Pony') 64-bit
Writing library : libebml v1.3.9 + libmatroska v1.5.2
Video
ID : 1
Format : AVC
Format/Info : Advanced Video Codec
Format profile : [email protected]
Format settings : CABAC / 5 Ref Frames
Format settings, CABAC : Yes
Format settings, Reference : 5 frames
Codec ID : V_MPEG4/ISO/AVC
Duration : 1 h 39 min
Bit rate : 11.6 Mb/s
Width : 1 920 pixels
Height : 804 pixels
Display aspect ratio : 2.40:1
Frame rate mode : Constant
Frame rate : 23.976 (24000/1001) FPS
Color space : YUV
Chroma subsampling : 4:2:0
Bit depth : 8 bits
Scan type : Progressive
Bits/(Pixel*Frame) : 0.313
Stream size : 8.08 GiB (89%)
Writing library : x264 core 160 r3000 33f9e14
Encoding settings : cabac=1 / ref=5 / deblock=1:-3:-3 / analyse=0x3:0x133 / me=umh / subme=10 / psy=1 / psy_rd=1.00:0.00 / mixed_ref=1 / me_range=32 / chroma_me=1 / trellis=2 / 8x8dct=1 / cqm=0 / deadzone=21,11 / fast_pskip=0 / chroma_qp_offset=-2 / threads=12 / lookahead_threads=2 / sliced_threads=0 / nr=0 / decimate=0 / interlaced=0 / bluray_compat=0 / constrained_intra=0 / bframes=8 / b_pyramid=2 / b_adapt=2 / b_bias=0 / direct=3 / weightb=1 / open_gop=0 / weightp=2 / keyint=250 / keyint_min=23 / scenecut=40 / intra_refresh=0 / rc=crf / mbtree=0 / crf=15.0 / qcomp=0.60 / qpmin=0 / qpmax=69 / qpstep=4 / ip_ratio=1.40 / pb_ratio=1.30 / aq=3:0.80
Language : English
Default : Yes
Forced : No
Audio #1
ID : 2
Format : AC-3
Format/Info : Audio Coding 3
Commercial name : Dolby Digital
Codec ID : A_AC3
Duration : 1 h 39 min
Bit rate mode : Constant
Bit rate : 384 kb/s
Channel(s) : 6 channels
Channel layout : L R C LFE Ls Rs
Sampling rate : 48.0 kHz
Frame rate : 31.250 FPS (1536 SPF)
Compression mode : Lossy
Stream size : 274 MiB (3%)
Title : iTunes
Language : Russian
Service kind : Complete Main
Default : Yes
Forced : Yes
Audio #2
ID : 3
Format : AC-3
Format/Info : Audio Coding 3
Commercial name : Dolby Digital
Codec ID : A_AC3
Duration : 1 h 39 min
Bit rate mode : Constant
Bit rate : 448 kb/s
Channel(s) : 6 channels
Channel layout : L R C LFE Ls Rs
Sampling rate : 48.0 kHz
Frame rate : 31.250 FPS (1536 SPF)
Compression mode : Lossy
Stream size : 319 MiB (3%)
Title : HDRezka Studio
Language : Russian
Service kind : Complete Main
Default : No
Forced : No
Audio #3
ID : 4
Format : AC-3
Format/Info : Audio Coding 3
Commercial name : Dolby Digital
Codec ID : A_AC3
Duration : 1 h 39 min
Bit rate mode : Constant
Bit rate : 640 kb/s
Channel(s) : 6 channels
Channel layout : L R C LFE Ls Rs
Sampling rate : 48.0 kHz
Frame rate : 31.250 FPS (1536 SPF)
Compression mode : Lossy
Stream size : 456 MiB (5%)
Title : Original
Language : English
Service kind : Complete Main
Default : No
Forced : No
Text #1
ID : 5
Format : UTF-8
Codec ID : S_TEXT/UTF8
Codec ID/Info : UTF-8 Plain Text
Duration : 29 min 48 s
Bit rate : 2 b/s
Count of elements : 12
Stream size : 553 Bytes (0%)
Title : Forced
Language : Russian
Default : Yes
Forced : Yes
Text #2
ID : 6
Format : UTF-8
Codec ID : S_TEXT/UTF8
Codec ID/Info : UTF-8 Plain Text
Duration : 1 h 38 min
Bit rate : 34 b/s
Count of elements : 765
Stream size : 24.7 KiB (0%)
Title : Full [iTunes]
Language : Russian
Default : No
Forced : No
Text #3
ID : 7
Format : UTF-8
Codec ID : S_TEXT/UTF8
Codec ID/Info : UTF-8 Plain Text
Duration : 1 h 38 min
Bit rate : 36 b/s
Count of elements : 815
Stream size : 26.7 KiB (0%)
Title : Full [Enigma]
Language : Russian
Default : No
Forced : No
Text #4
ID : 8
Format : UTF-8
Codec ID : S_TEXT/UTF8
Codec ID/Info : UTF-8 Plain Text
Duration : 1 h 38 min
Bit rate : 23 b/s
Count of elements : 805
Stream size : 17.0 KiB (0%)
Title : Full
Language : English
Default : No
Forced : No
Text #5
ID : 9
Format : UTF-8
Codec ID : S_TEXT/UTF8
Codec ID/Info : UTF-8 Plain Text
Duration : 1 h 39 min
Bit rate : 32 b/s
Count of elements : 1196
Stream size : 23.4 KiB (0%)
Title : SDH
Language : English
Default : No
Forced : No
Menu
00:00:00.000 : en:Chapter 01
00:03:35.882 : en:Chapter 02
00:05:58.608 : en:Chapter 03
00:10:31.339 : en:Chapter 04
00:15:49.699 : en:Chapter 05
00:19:03.851 : en:Chapter 06
00:23:29.533 : en:Chapter 07
00:27:28.355 : en:Chapter 08
00:32:27.821 : en:Chapter 09
00:34:32.529 : en:Chapter 10
00:41:43.793 : en:Chapter 11
00:46:14.522 : en:Chapter 12
00:50:07.338 : en:Chapter 13
00:55:15.562 : en:Chapter 14
01:00:30.919 : en:Chapter 15
01:04:04.632 : en:Chapter 16
01:07:46.980 : en:Chapter 17
01:12:38.563 : en:Chapter 18
01:17:02.952 : en:Chapter 19
01:19:25.219 : en:Chapter 20
01:23:07.107 : en:Chapter 21
01:26:21.218 : en:Chapter 22
01:29:26.194 : en:Chapter 23
01:32:22.620 : en:Chapter 24
Релиз от:
[korsars.info].t31784.torrent 
Торрент: Зарегистрирован [ 2020-09-09 09:00 ] · 7E7E37D8577FFFC01CC2CE0D35295D102CDB7558

Скачать .torrent

Размер .torrent файла 12 KB

Статус: проверено
.torrent скачан: 3 раз
Размер: 9,11 GB
Правила
Похожие темы

[Профиль] [ЛС]
Показать сообщения:    
Ответить на тему

Текущее время: 23-Сен 06:08

Часовой пояс: UTC + 4



Вы не можете начинать темы
Вы не можете отвечать на сообщения
Вы не можете редактировать свои сообщения
Вы не можете удалять свои сообщения
Вы не можете голосовать в опросах
Вы не можете прикреплять файлы к сообщениям
Вы можете скачивать файлы
Анализ сайта korsars.info Яндекс.Метрика