Мёд в голове / Honig im Kopf (2014) BDRip 1080p от HDReactor | P, L1

Ответить на тему
Статистика раздачи [Обновить пиров]
Размер:  11,65 GB   |    Зарегистрирован:  13 дней   |    .torrent скачан:  1 раз
Раздают:  16  [  0 KB/s  ]   Качают:  3  [  0 KB/s  ]   Подробная статистика пиров
 
   
 
 
Автор Сообщение

4udaki ®

Оффлайн

Медали


Пол: Мужской

Стаж: 5 лет 10 месяцев

Наличие запрета:

Сообщений: 7960

Откуда: korsars.info

Отдача: 2 Mb/s

Загрузка: 20 Mb/s

Нажми


Скачать Adguard бесплатно

Создавать темы 10-Сен-2020 05:00

[Цитировать]

Информация о фильме
Название: Мёд в Голове
Оригинальное название: Honig im Kopf
Год выпуска: 2014
Жанр: Драма, комедия, приключения, семейный
Выпущено: Германия, barefoot films, Seven Pictures, Warner Bros. GmbH
Режиссер: Тиль Швайгер
В ролях: Эмма Швайгер, Дитер Халлерворден, Тиль Швайгер, Паскуале Алеарди, Клаудио Кайоло, Дэна Цебулла, Самуэль Финци, Лиана Форестьери, Жанетт Хайн, Клаудия Михельсен, Дар Салим, Тило Прюкнер, Валентин Швайгер, Фахри Огюн Ярдим
О фильме: История 11-летней Тильды, которая просто обожает своего дедушку Амандуса. Когда тому диагностируют болезнь Альцгеймера, а родители, по ее мнению, хотят избавиться от него, сдав в дом престарелых, она берет ситуацию в свои руки и сбегает вместе с дедом в сказочную Венецию. Город выбран неслучайно. Ведь почти полвека назад Амандус сделал там предложение руки и сердца бабушке Тильды. Теперь внучка надеется, что оказавшись там, деду станет лучше, и он хоть что-нибудь вспомнит.

Продолжительность: 02:19:02
Перевод: Профессиональный многоголосый, любительский одноголосый
Субтитры: Русские, английские, немецкие
Файл
Качество: BDRip (1080p)
Видео: MPEG-4 AVC, 10,6 Мбит/с, 1920x816
Аудио #1: Русский (AC3, 6 ch, 448 Кбит/с) - MVO [FocusStudio]
Аудио #2: Русский (AC3, 6 ch, 448 Кбит/с) -VO [Антон Башков]
Аудио #3: Немецкий (AC3, 6 ch, 448 Кбит/с)

МедиаИнфо

Формат : Matroska
Версия формата : Version 2
Размер файла : 11,6 Гбайт
Продолжительность : 2 ч. 19 м.
Общий поток : 12,0 Мбит/сек
Название фильма : ~V ad~
Дата кодирования : UTC 2017-10-25 06:42:11
Программа кодирования : mkvmerge v6.5.0 ('Isn't she lovely') built on Oct 20 2013 12:50:05
Библиотека кодирования : libebml v1.3.0 + libmatroska v1.4.1
Обложка : Yes
Attachments : cover.jpg
Видео
Идентификатор : 1
Формат : AVC
Формат/Информация : Advanced Video Codec
Профиль формата : [email protected]
Настройки формата : CABAC / 5 Ref Frames
Параметр CABAC формата : Да
Параметр RefFrames формата : 5 кадров
Идентификатор кодека : V_MPEG4/ISO/AVC
Продолжительность : 2 ч. 19 м.
Битрейт : 10,6 Мбит/сек
Ширина : 1920 пикселей
Высота : 816 пикселей
Соотношение сторон : 2,35:1
Режим частоты кадров : Постоянный
Частота кадров : 23,976 (24000/1001) кадра/сек
Цветовое пространство : YUV
Субдискретизация насыщенности : 4:2:0
Битовая глубина : 8 бит
Тип развёртки : Прогрессивная
Бит/(Пиксели*Кадры) : 0.284
Размер потока : 10,1 Гбайт (87%)
Заголовок : ~V~
Библиотека кодирования : x264 core 152 r2851 ba24899
Настройки программы : cabac=1 / ref=5 / deblock=1:-3:-3 / analyse=0x3:0x133 / me=umh / subme=11 / psy=1 / psy_rd=1.00:0.00 / mixed_ref=1 / me_range=32 / chroma_me=1 / trellis=2 / 8x8dct=1 / cqm=0 / deadzone=21,11 / fast_pskip=0 / chroma_qp_offset=-2 / threads=12 / lookahead_threads=1 / sliced_threads=0 / nr=0 / decimate=0 / interlaced=0 / bluray_compat=0 / constrained_intra=0 / bframes=10 / b_pyramid=2 / b_adapt=2 / b_bias=0 / direct=3 / weightb=1 / open_gop=0 / weightp=2 / keyint=240 / keyint_min=23 / scenecut=40 / intra_refresh=0 / rc=2pass / mbtree=0 / bitrate=10650 / ratetol=1.0 / qcomp=0.60 / qpmin=0 / qpmax=69 / qpstep=4 / cplxblur=20.0 / qblur=0.5 / ip_ratio=1.20 / pb_ratio=1.30 / aq=3:0.90
Язык : English
Default : Да
Forced : Нет
Аудио #1
Идентификатор : 2
Формат : AC-3
Формат/Информация : Audio Coding 3
Параметр Endianness формата : Big
Идентификатор кодека : A_AC3
Продолжительность : 2 ч. 19 м.
Вид битрейта : Постоянный
Битрейт : 448 Кбит/сек
Каналы : 6 каналов
Расположение каналов : Front: L C R, Side: L R, LFE
Частота : 48,0 КГц
Частота кадров : 31,250 кадров/сек (1536 SPF)
Битовая глубина : 16 бит
Метод сжатия : С потерями
Размер потока : 446 Мбайт (4%)
Заголовок : MVO[Focus Studio]
Язык : Russian
Default : Да
Forced : Нет
Аудио #2
Идентификатор : 3
Формат : AC-3
Формат/Информация : Audio Coding 3
Параметр Endianness формата : Big
Идентификатор кодека : A_AC3
Продолжительность : 2 ч. 19 м.
Вид битрейта : Постоянный
Битрейт : 448 Кбит/сек
Каналы : 6 каналов
Расположение каналов : Front: L C R, Side: L R, LFE
Частота : 48,0 КГц
Частота кадров : 31,250 кадров/сек (1536 SPF)
Битовая глубина : 16 бит
Метод сжатия : С потерями
Размер потока : 446 Мбайт (4%)
Заголовок : VO[Антон Башков]
Язык : Russian
Default : Нет
Forced : Нет
Аудио #3
Идентификатор : 4
Формат : AC-3
Формат/Информация : Audio Coding 3
Параметр Endianness формата : Big
Идентификатор кодека : A_AC3
Продолжительность : 2 ч. 19 м.
Вид битрейта : Постоянный
Битрейт : 448 Кбит/сек
Каналы : 6 каналов
Расположение каналов : Front: L C R, Side: L R, LFE
Частота : 48,0 КГц
Частота кадров : 31,250 кадров/сек (1536 SPF)
Битовая глубина : 16 бит
Метод сжатия : С потерями
Размер потока : 446 Мбайт (4%)
Язык : German
Default : Нет
Forced : Нет
Текст #1
Идентификатор : 5
Формат : UTF-8
Идентификатор кодека : S_TEXT/UTF8
Идентификатор кодека/Информация : UTF-8 Plain Text
Заголовок : Forced
Язык : Russian
Default : Да
Forced : Нет
Текст #2
Идентификатор : 6
Формат : UTF-8
Идентификатор кодека : S_TEXT/UTF8
Идентификатор кодека/Информация : UTF-8 Plain Text
Заголовок : Full[Анастасия Кисиленко]
Язык : Russian
Default : Нет
Forced : Нет
Текст #3
Идентификатор : 7
Формат : UTF-8
Идентификатор кодека : S_TEXT/UTF8
Идентификатор кодека/Информация : UTF-8 Plain Text
Заголовок : Full[MIG_88]]
Язык : Russian
Default : Нет
Forced : Нет
Текст #4
Идентификатор : 8
Формат : UTF-8
Идентификатор кодека : S_TEXT/UTF8
Идентификатор кодека/Информация : UTF-8 Plain Text
Заголовок : Full
Язык : English
Default : Нет
Forced : Нет
Текст #5
Идентификатор : 9
Формат : UTF-8
Идентификатор кодека : S_TEXT/UTF8
Идентификатор кодека/Информация : UTF-8 Plain Text
Заголовок : SDH
Язык : German
Default : Нет
Forced : Нет
Меню
00:00:00.000 : en:Chapter 1
00:09:44.000 : en:Chapter 2
00:22:45.489 : en:Chapter 3
00:33:05.441 : en:Chapter 4
00:44:45.516 : en:Chapter 5
01:00:11.107 : en:Chapter 6
01:09:53.981 : en:Chapter 7
01:22:14.554 : en:Chapter 8
01:33:13.296 : en:Chapter 9
01:45:00.294 : en:Chapter 10
01:55:06.357 : en:Chapter 11
02:08:31.245 : en:Chapter 12
02:19:01.583 : en:Chapter 13

х264

x264 [info]: frame I:3992 Avg QP:17.99 size:222322
x264 [info]: frame P:38142 Avg QP:19.77 size:105941
x264 [info]: frame B:157877 Avg QP:21.42 size: 39108
--Сэмпл
Релиз от:
[korsars.info].t31800.torrent 
Торрент: Зарегистрирован [ 2020-09-10 05:00 ] · 9BFDDD306AE5D948CBEBC2B4C9E4CBA9772AF214

Скачать .torrent

Размер .torrent файла 31 KB

Статус: проверено
.torrent скачан: 1 раз
Размер: 11,65 GB
Правила
Похожие темы

[Профиль] [ЛС]
Показать сообщения:    
Ответить на тему

Текущее время: 23-Сен 05:49

Часовой пояс: UTC + 4



Вы не можете начинать темы
Вы не можете отвечать на сообщения
Вы не можете редактировать свои сообщения
Вы не можете удалять свои сообщения
Вы не можете голосовать в опросах
Вы не можете прикреплять файлы к сообщениям
Вы можете скачивать файлы
Анализ сайта korsars.info Яндекс.Метрика