Как продавать наркотики онлайн (быстро) / How To Sell Drugs Online (Fast) [S01] (2019) WEBRip 720p | HDRezka Studio

Ответить на тему
Статистика раздачи [Обновить пиров]
Размер:  4,42 GB   |    Зарегистрирован:  9 дней   |    .torrent скачан:  0 раз
Раздают:  16  [  0 KB/s  ]   Качают:  5  [  0 KB/s  ]   Подробная статистика пиров
 
   
 
 
Автор Сообщение

4udaki ®

Оффлайн

Медали


Пол: Мужской

Стаж: 5 лет 10 месяцев

Наличие запрета:

Сообщений: 7938

Откуда: korsars.info

Отдача: 2 Mb/s

Загрузка: 20 Mb/s

Нажми


Скачать Adguard бесплатно

Создавать темы 10-Сен-2020 17:00

[Цитировать]

Информация о фильме
Название: Как продавать наркотики онлайн (быстро)
Оригинальное название: How To Sell Drugs Online (Fast)
Год выхода: 2019
Жанр: драма, мелодрама, комедия, криминал
Режиссер: Арни Фельдхузен, Ларс Монтаг
В ролях: Максимилиан Мундт, Данило Камбер, Анна-Лена Кленке, Дамиан Хардунг, Леони Весселоу, Бьярне Медел, Роланд Рибелинг, Ульрике Фолькертс
О фильме:
Мориц расстроен: его девушка ушла к школьному драгдилеру. Единственный способ ее вернуть — стать лучше конкурента. Вместе с другом Ленни парень разворачивает наркорынок невероятных масштабов — вот на что сподвигает любовь!
ВСТРЕЧАЕТСЯ РУССКИЙ МАТ

Страна: Германия
Студия: Bildundtonfabrik, NetFlix
Продолжительность: 6 x ~ 00:30:00
Перевод: Профессиональный многоголосый, закадровый [HDRezka Studio]
Файл
Кодек: H.264
Качество: WEBRip 720p
Видео: AVC, 1280x720 (16:9), 25 fps ~ 3000 Kbps
Звук: AC3, 48 KHz, 2 ch ~ 192 Kb/s
Субтитры: русские, неотключаемые (на надписи и сообщения)
Реклама: нет

MI:

General
Unique ID : 247927492129412398290021714917565555092 (0xBA85191DED174B9A8C2313B6FBDA6194)
Complete name : J:wotHow.to.Sell.Drugs.Online.Fast.2019.S01.720pHow.to.Sell.Drugs.Online.Fast.S01E01.WEBRip.720p.HDREZKA.STUDIO.mkv
Format : Matroska
Format version : Version 4 / Version 2
File size : 950 MiB
Duration : 32mn 39s
Overall bit rate mode : Variable
Overall bit rate : 4 068 Kbps
Encoded date : UTC 2020-04-21 07:14:31
Writing application : mkvmerge v7.7.0 ('Six Voices') 32bit built on Feb 28 2015 23:23:00
Writing library : Lavf58.26.101
Video
ID : 1
Format : AVC
Format/Info : Advanced Video Codec
Format profile : [email protected]
Format settings, CABAC : Yes
Format settings, ReFrames : 1 frame
Codec ID : V_MPEG4/ISO/AVC
Duration : 32mn 39s
Bit rate mode : Variable
Bit rate : 3 795 Kbps
Maximum bit rate : 2 000 Kbps
Width : 1 280 pixels
Height : 720 pixels
Display aspect ratio : 16:9
Frame rate mode : Constant
Frame rate : 25.000 fps
Color space : YUV
Chroma subsampling : 4:2:0
Bit depth : 8 bits
Scan type : Progressive
Bits/(Pixel*Frame) : 0.165
Stream size : 886 MiB (93%)
Default : Yes
Forced : No
HANDLER_NAME : VideoHandler
DURATION : 00:32:35.800000000
NUMBER_OF_FRAMES : 48895
NUMBER_OF_BYTES : 948695367
_STATISTICS_WRITING_APP : mkvmerge v7.7.0 ('Six Voices') 32bit built on Feb 28 2015 23:23:00
_STATISTICS_WRITING_DATE_UTC : 2020-04-21 07:14:31
_STATISTICS_TAGS : BPS DURATION NUMBER_OF_FRAMES NUMBER_OF_BYTES
Audio
ID : 2
Format : AC-3
Format/Info : Audio Coding 3
Mode extension : CM (complete main)
Format settings, Endianness : Big
Codec ID : A_AC3
Duration : 32mn 39s
Bit rate mode : Constant
Bit rate : 192 Kbps
Channel(s) : 2 channels
Channel positions : Front: L R
Sampling rate : 48.0 KHz
Compression mode : Lossy
Delay relative to video : 11ms
Stream size : 44.8 MiB (5%)
Language : Russian
Default : Yes
Forced : No
HANDLER_NAME : SoundHandler
DURATION : 00:32:39.040000000
NUMBER_OF_FRAMES : 61220
NUMBER_OF_BYTES : 47016960
_STATISTICS_WRITING_APP : mkvmerge v7.7.0 ('Six Voices') 32bit built on Feb 28 2015 23:23:00
_STATISTICS_WRITING_DATE_UTC : 2020-04-21 07:14:31
_STATISTICS_TAGS : BPS DURATION NUMBER_OF_FRAMES NUMBER_OF_BYTES
[korsars.info].t31816.torrent 
Торрент: Зарегистрирован [ 2020-09-10 17:00 ] · 3A7B750E7C664BA26C8E8E0212C5D1F10D1845B7

Скачать .torrent

Размер .torrent файла 24 KB

Статус: проверено
.torrent скачан: 0 раз
Размер: 4,42 GB
Правила
Похожие темы

[Профиль] [ЛС]
Показать сообщения:    
Ответить на тему

Текущее время: 20-Сен 05:23

Часовой пояс: UTC + 4



Вы не можете начинать темы
Вы не можете отвечать на сообщения
Вы не можете редактировать свои сообщения
Вы не можете удалять свои сообщения
Вы не можете голосовать в опросах
Вы не можете прикреплять файлы к сообщениям
Вы можете скачивать файлы
Анализ сайта korsars.info Яндекс.Метрика