Финес и Ферб: Кэндис против Вселенной / Phineas and Ferb the Movie: Candace Against the Universe (2020) WEB-DL 1080p | Flarrow Films

Ответить на тему
Статистика раздачи [Обновить пиров]
Размер:  2,34 GB   |    Зарегистрирован:  12 дней   |    .torrent скачан:  4 раза
Раздают:  33  [  0 KB/s  ]   Качают:  12  [  0 KB/s  ]   Подробная статистика пиров
 
   
 
 
Автор Сообщение

flarrowfilms ®

Оффлайн

Медали
VIPДруг трекераСупер Мега Контер Квейк


Пол: Не указан

Стаж: 5 месяцев 29 дней

Наличие запрета:

Сообщений: 39

Отдача: 5 Mb/s

Загрузка: 5 Mb/s

Нажми


Скачать Adguard бесплатно

Создавать темы 10-Сен-2020 18:30

[Цитировать]

Информация о фильме
Название: Финес и Ферб: Кэндис против Вселенной
Оригинальное название: Phineas and Ferb the Movie: Candace Against the Universe
Год выхода: 2020
Жанр: мультфильм, мюзикл, фантастика, комедия, приключения, семейный
Режиссер: Боб Бауэн
В ролях: Винсент Мартелла, Эшли Тисдейл, Давид Эрриго мл., Ди Брэдли Бейкер, Дэн Повенмайр, Джефф «Свомпи» Марш, Элисон Стоунер, Кэролайн Ри, Молик Панчоли, Роберт Гейлор
О фильме:
Пускай Кэндис из «Финеса и Ферба» и хочет только лучшего для своей родни, кажется, будто весь мир настроен против неё. А тут ещё и инопланетяне похитили… полоса невезения не заканчивается. Но семья так просто не бросает своих! Финес, Ферб и их друзья отправляются в опасное космическое путешествие, чтобы спасти старшую сестрёнку и победить всех инопланетян

Страна: США
Продолжительность: 1:24:44
Перевод: Профессиональный (многоголосый, закадровый) | Flarrow Films
Роли озвучивали: Лена Лунина, Ахилл Намазов, Денис Кузьмичёв, Андрей Маслов, Рута Новикова, Лилия Сафина, Рина Чернышова, Алексей Ядренников и Семён Евсиков
Файл
Формат: MKV
Кодек: MPEG-4 AVC
Качество: WEB-DL 1080p
Видео: 1920х1080, ~ 3 625 kb/s, 23.976 FPS, 8 bits
Звук: AC-3, 320 kb/s, 2 channels, 48.0 kHz
Субтитры: русские (отключаемые UTF-8)-

MediaInfo

General
Unique ID : 312852605474617879557703759915019870018 (0xEB5D3858E3291DF7C2A9E61472DF1F42)
Complete name : C:\Flarrow\Phineas.and.Ferb.The.Movie.Candace.Against.The.Universe.2020.Flarrow.Films.mkv
Format : Matroska
Format version : Version 4
File size : 2.34 GiB
Duration : 1 h 24 min
Overall bit rate : 3 947 kb/s
Encoded date : UTC 2020-09-10 12:23:30
Writing application : mkvmerge v32.0.0 ('Astral Progressions') 64-bit
Writing library : libebml v1.3.7 + libmatroska v1.5.0
Video
ID : 1
Format : AVC
Format/Info : Advanced Video Codec
Format profile : [email protected]
Format settings : CABAC / 4 Ref Frames
Format settings, CABAC : Yes
Format settings, Reference : 4 frames
Codec ID : V_MPEG4/ISO/AVC
Duration : 1 h 24 min
Bit rate : 3 625 kb/s
Width : 1 920 pixels
Height : 1 080 pixels
Display aspect ratio : 16:9
Frame rate mode : Constant
Frame rate : 23.976 (24000/1001) FPS
Color space : YUV
Chroma subsampling : 4:2:0
Bit depth : 8 bits
Scan type : Progressive
Bits/(Pixel*Frame) : 0.073
Stream size : 2.15 GiB (92%)
Writing library : x264 core 146 r2538 121396c
Encoding settings : cabac=1 / ref=4 / deblock=1:1:1 / analyse=0x3:0x113 / me=hex / subme=6 / psy=1 / psy_rd=0.40:0.00 / mixed_ref=1 / me_range=16 / chroma_me=1 / trellis=1 / 8x8dct=1 / cqm=0 / deadzone=21,11 / fast_pskip=1 / chroma_qp_offset=-2 / threads=6 / lookahead_threads=1 / sliced_threads=0 / nr=0 / decimate=1 / interlaced=0 / bluray_compat=0 / constrained_intra=0 / bframes=5 / b_pyramid=2 / b_adapt=1 / b_bias=0 / direct=1 / weightb=1 / open_gop=0 / weightp=1 / keyint=250 / keyint_min=23 / scenecut=40 / intra_refresh=0 / rc_lookahead=30 / rc=crf / mbtree=1 / crf=19.0 / qcomp=0.60 / qpmin=0 / qpmax=69 / qpstep=4 / ip_ratio=1.40 / aq=1:0.60
Default : Yes
Forced : No
Audio
ID : 2
Format : AC-3
Format/Info : Audio Coding 3
Commercial name : Dolby Digital
Codec ID : A_AC3
Duration : 1 h 24 min
Bit rate mode : Constant
Bit rate : 320 kb/s
Channel(s) : 2 channels
Channel layout : L R
Sampling rate : 48.0 kHz
Frame rate : 31.250 FPS (1536 SPF)
Compression mode : Lossy
Stream size : 194 MiB (8%)
Language : Russian
Service kind : Complete Main
Default : Yes
Forced : No
Text
ID : 3
Format : UTF-8
Codec ID : S_TEXT/UTF8
Codec ID/Info : UTF-8 Plain Text
Duration : 1 h 22 min
Bit rate : 147 b/s
Count of elements : 1394
Stream size : 89.0 KiB (0%)
Language : Russian
Default : Yes
Forced : No
--Релиз от: Flarrow Films
Примечание: Без интро Flarrow Films- -
[korsars.info].t31817.torrent 
Торрент: Зарегистрирован [ 2020-09-10 18:30 ] · DE71931B8F2A41F004E6A66B2E609ADFF0F16C9C

Скачать .torrent

Размер .torrent файла 12 KB

Статус: проверено
.torrent скачан: 4 раз
Размер: 2,34 GB
Правила

[Профиль] [ЛС]
Показать сообщения:    
Ответить на тему

Текущее время: 23-Сен 06:15

Часовой пояс: UTC + 4



Вы не можете начинать темы
Вы не можете отвечать на сообщения
Вы не можете редактировать свои сообщения
Вы не можете удалять свои сообщения
Вы не можете голосовать в опросах
Вы не можете прикреплять файлы к сообщениям
Вы можете скачивать файлы
Анализ сайта korsars.info Яндекс.Метрика