Короткометражка Marvel: Да здравствует король / Marvel One-Shot: All Hail the King (2014) BDRemux 1080p | D | Flarrow Films

Ответить на тему
Статистика раздачи [Обновить пиров]
Размер:  1,07 GB   |    Зарегистрирован:  9 дней   |    .torrent скачан:  4 раза
Раздают:  21  [  0 KB/s  ]   Качают:  3  [  0 KB/s  ]   Подробная статистика пиров
 
   
 
 
Автор Сообщение

flarrowfilms ®

Оффлайн

Медали
VIPДруг трекераСупер Мега Контер Квейк


Пол: Не указан

Стаж: 5 месяцев 26 дней

Наличие запрета:

Сообщений: 37

Отдача: 5 Mb/s

Загрузка: 5 Mb/s

Нажми


Скачать Adguard бесплатно

Создавать темы 11-Сен-2020 00:18

[Цитировать]

Информация о фильме
Название: Короткометражка Marvel: Да здравствует король
Оригинальное название: Marvel One-Shot: All Hail the King
Год выхода: 2014
Жанр: короткометражка, фантастика, боевик
Режиссер: Дрю Пирс
В ролях: Бен Кингсли, Скут МакНэри, Лестер Спейт, Сэм Рокуэлл, Мэтт Джералд, Аллен Мальдонадо, Кристал Манки, Джои Абрил, Билли Чой, Маркус Нативидад
О фильме:
После событий фильма «Железный человек 3» Тревора Слэттери посадили в тюрьму строгого режима. К счастью его образ принес ему известность и защиту даже там, и актер с удовольствием согласился побеседовать с режиссером-документалистом...

Страна: США
Продолжительность: 00:13:51
Перевод: Дублированный (профессиональный) | Flarrow Films
Роли озвучивали: Алексей Щегорский, Глеб Петров, Михаил Федосеев, Семён Евсиков, Евгений Леонов и Алексей Ядренников
Файл
Формат: MKV
Кодек: MPEG-4 AVC
Качество: BDRemux 1080p (локализованный видеоряд)
Видео: 1920х804, ~ 11.0 Mb/s, 23.976 FPS, 8 bits
Звук: AC-3, 320 kb/s, 2 channels, 48.0 kHz
Субтитры: русские (отключаемые UTF-8)-

MediaInfo

General
Unique ID : 50838538452193094492647979494835737284 (0x263F25776A89BC40776702AECF5BD2C4)
Complete name : C:\Flarrow\Marvel.One-Shot.All.Hail.The.King.2014.D.Flarrow.Films.mkv
Format : Matroska
Format version : Version 4
File size : 1.07 GiB
Duration : 13 min 51 s
Overall bit rate mode : Variable
Overall bit rate : 11.0 Mb/s
Encoded date : UTC 2020-09-10 19:45:37
Writing application : mkvmerge v32.0.0 ('Astral Progressions') 64-bit
Writing library : libebml v1.3.7 + libmatroska v1.5.0
Video
ID : 1
Format : AVC
Format/Info : Advanced Video Codec
Format profile : [email protected]
Format settings : CABAC / 2 Ref Frames
Format settings, CABAC : Yes
Format settings, Reference : 2 frames
Format settings, GOP : M=3, N=23
Codec ID : V_MPEG4/ISO/AVC
Duration : 13 min 29 s
Bit rate mode : Variable
Bit rate : 11.0 Mb/s
Maximum bit rate : 14.0 Mb/s
Width : 1 920 pixels
Height : 804 pixels
Display aspect ratio : 2.40:1
Frame rate mode : Constant
Frame rate : 23.976 (23976/1000) FPS
Original frame rate : 23.976 (24000/1001) FPS
Color space : YUV
Chroma subsampling : 4:2:0
Bit depth : 8 bits
Scan type : Progressive
Bits/(Pixel*Frame) : 0.297
Stream size : 1.04 GiB (97%)
Language : Russian
Default : Yes
Forced : No
Audio
ID : 3
Format : AC-3
Format/Info : Audio Coding 3
Commercial name : Dolby Digital
Codec ID : A_AC3
Duration : 13 min 51 s
Bit rate mode : Constant
Bit rate : 320 kb/s
Channel(s) : 2 channels
Channel layout : L R
Sampling rate : 48.0 kHz
Frame rate : 31.250 FPS (1536 SPF)
Compression mode : Lossy
Stream size : 31.7 MiB (3%)
Service kind : Complete Main
Default : Yes
Forced : No
Text
ID : 2
Format : UTF-8
Codec ID : S_TEXT/UTF8
Codec ID/Info : UTF-8 Plain Text
Duration : 13 min 50 s
Bit rate : 131 b/s
Count of elements : 194
Stream size : 13.4 KiB (0%)
Language : Russian
Default : Yes
Forced : No
--Релиз от: Flarrow Films
Примечание: Без интро Flarrow Films- -
[korsars.info].t31823.torrent 
Торрент: Зарегистрирован [ 2020-09-11 00:18 ] · FDA1F0645D527E390B2F283BCB7A7B3DBCABF7DD

Скачать .torrent

Размер .torrent файла 11 KB

Статус: проверено
.torrent скачан: 4 раз
Размер: 1,07 GB
Правила
Похожие темы

[Профиль] [ЛС]
Показать сообщения:    
Ответить на тему

Текущее время: 20-Сен 04:41

Часовой пояс: UTC + 4



Вы не можете начинать темы
Вы не можете отвечать на сообщения
Вы не можете редактировать свои сообщения
Вы не можете удалять свои сообщения
Вы не можете голосовать в опросах
Вы не можете прикреплять файлы к сообщениям
Вы можете скачивать файлы
Анализ сайта korsars.info Яндекс.Метрика