Кролик Джоджо / Jojo Rabbit (2019) BDRip 720p от k.e.n & MegaPeer | P, A

Ответить на тему
Статистика раздачи [Обновить пиров]
Размер:  5,08 GB   |    Зарегистрирован:  12 дней   |    .torrent скачан:  0 раз
Раздают:  96  [  0 KB/s  ]   Качают:  5  [  0 KB/s  ]   Подробная статистика пиров
 
   
 
 
Автор Сообщение

4udaki ®

Оффлайн

Медали


Пол: Мужской

Стаж: 5 лет 10 месяцев

Наличие запрета:

Сообщений: 7960

Откуда: korsars.info

Отдача: 2 Mb/s

Загрузка: 20 Mb/s

Нажми


Скачать Adguard бесплатно

Создавать темы 11-Сен-2020 05:00

[Цитировать]


Информация о фильме
Название: Кролик Джоджо
Оригинальное название: Jojo Rabbit
Год выхода: 2019
Жанр: Драма, комедия, военный
Режиссер: Тайка Вайтити
В ролях: Роман Гриффин Дэвис, Томасин МакКензи, Скарлетт Йоханссон, Тайка Вайтити, Сэм Рокуэлл, Ребел Уилсон, Алфи Аллен, Стивен Мерчант, Арчи Йейтс, Люк Шуфилд
О фильме:
Неловкий и нескладный 10-летний немецкий мальчик, потерявший отца, пытается найти своё место в непривычном мире. Ровесники лишь потешаются над ним, а мама считает, что ребёнок сам придумывает себе проблемы. В надежде получить замену пропавшего отца мальчик придумывает себе воображаемого друга — Адольфа Гитлера, который совсем не похож на знакомого всем фюрера Третьего рейха. Ситуация только осложняется, когда мальчик обнаруживает, что его мать прячет в доме еврейскую девочку.

Страна: Чехия, США, Новая Зеландия
Студия: Czech Anglo Productions, Defender Films, Piki Films, TSG Entertainment
Продолжительность: 01:48:23
Перевод: Профессиональный (многоголосый закадровый), авторский (одноголосый закадровый)
Файл
Формат: MKV
Качество: BDRip 720p
Видео: AVC, 1280x692 (1.85:1), 23.976 fps, 4913 kbps
Аудио #1: AC3, 48 kHz, 6 ch, 448 kbps - Русский, MVO (HDrezka Studio)
Аудио #2: AC3, 48 kHz, 6 ch, 448 kbps - Русский, MVO (Good People)
Аудио #3: AC3, 48 kHz, 6 ch, 448 kbps - Русский, AVO (М.Яроцкий)
Аудио #4: AC3, 48 kHz, 6 ch, 448 kbps - Английский, Original
Субтитры: Russian, English
Релиз от: &

x264 & MediaInfo:

Сравнения
x264 [info]: frame I:1340 Avg QP:14.57 size:149908
x264 [info]: frame P:30325 Avg QP:16.70 size: 55160
x264 [info]: frame B:124262 Avg QP:18.25 size: 17041-Format : Matroska
Format version : Version 2
File size : 5.08 GiB
Duration : 1 h 48 min
Overall bit rate : 6 705 kb/s
Encoded date : UTC 2020-02-11 23:33:39
Writing application : mkvmerge v5.3.0 ('I could have danced') built on Feb 9 2012 10:38:07
Writing library : libebml v1.2.3 + libmatroska v1.3.0
Cover : Yes
Attachments : cover (2).png
Video
ID : 1
Format : AVC
Format/Info : Advanced Video Codec
Format profile : [email protected]
Format settings : CABAC / 9 Ref Frames
Format settings, CABAC : Yes
Format settings, Reference frames : 9 frames
Codec ID : V_MPEG4/ISO/AVC
Duration : 1 h 48 min
Bit rate : 4 913 kb/s
Width : 1 280 pixels
Height : 692 pixels
Display aspect ratio : 1.85:1
Frame rate mode : Constant
Frame rate : 23.976 (24000/1001) FPS
Color space : YUV
Chroma subsampling : 4:2:0
Bit depth : 8 bits
Scan type : Progressive
Bits/(Pixel*Frame) : 0.231
Stream size : 3.62 GiB (71%)
Writing library : x264 core 159 r2991 1771b55
Encoding settings : cabac=1 / ref=9 / deblock=1:-3:-3 / analyse=0x3:0x133 / me=umh / subme=11 / psy=1 / psy_rd=1.00:0.00 / mixed_ref=1 / me_range=32 / chroma_me=1 / trellis=2 / 8x8dct=1 / cqm=0 / deadzone=21,11 / fast_pskip=0 / chroma_qp_offset=-2 / threads=12 / lookahead_threads=3 / sliced_threads=0 / nr=0 / decimate=0 / interlaced=0 / bluray_compat=0 / constrained_intra=0 / bframes=12 / b_pyramid=2 / b_adapt=2 / b_bias=0 / direct=3 / weightb=1 / open_gop=0 / weightp=2 / keyint=240 / keyint_min=23 / scenecut=40 / intra_refresh=0 / rc_lookahead=60 / rc=2pass / mbtree=0 / bitrate=4913 / ratetol=1.0 / qcomp=0.65 / qpmin=0 / qpmax=69 / qpstep=4 / cplxblur=20.0 / qblur=0.5 / vbv_maxrate=50000 / vbv_bufsize=62500 / nal_hrd=none / filler=0 / ip_ratio=1.30 / pb_ratio=1.30 / aq=3:0.80
Language : English
Default : Yes
Forced : No
Color range : Limited
Color primaries : BT.709
Transfer characteristics : BT.709
Matrix coefficients : BT.709
Audio #1
ID : 2
Format : AC-3
Format/Info : Audio Coding 3
Commercial name : Dolby Digital
Codec ID : A_AC3
Duration : 1 h 48 min
Bit rate mode : Constant
Bit rate : 448 kb/s
Channel(s) : 6 channels
Channel layout : L R C LFE Ls Rs
Sampling rate : 48.0 kHz
Frame rate : 31.250 FPS (1536 SPF)
Bit depth : 16 bits
Compression mode : Lossy
Stream size : 347 MiB (7%)
Title : MVO | HDrezka Studio
Language : Russian
Service kind : Complete Main
Default : Yes
Forced : No
Audio #2
ID : 3
Format : AC-3
Format/Info : Audio Coding 3
Commercial name : Dolby Digital
Codec ID : A_AC3
Duration : 1 h 48 min
Bit rate mode : Constant
Bit rate : 448 kb/s
Channel(s) : 6 channels
Channel layout : L R C LFE Ls Rs
Sampling rate : 48.0 kHz
Frame rate : 31.250 FPS (1536 SPF)
Bit depth : 16 bits
Compression mode : Lossy
Stream size : 347 MiB (7%)
Title : MVO | Good People
Language : Russian
Service kind : Complete Main
Default : No
Forced : No
Audio #3
ID : 4
Format : AC-3
Format/Info : Audio Coding 3
Commercial name : Dolby Digital
Codec ID : A_AC3
Duration : 1 h 48 min
Bit rate mode : Constant
Bit rate : 448 kb/s
Channel(s) : 6 channels
Channel layout : L R C LFE Ls Rs
Sampling rate : 48.0 kHz
Frame rate : 31.250 FPS (1536 SPF)
Bit depth : 16 bits
Compression mode : Lossy
Stream size : 347 MiB (7%)
Title : AVO | М.Яроцкий
Language : Russian
Service kind : Complete Main
Default : No
Forced : No
Audio #4
ID : 5
Format : AC-3
Format/Info : Audio Coding 3
Commercial name : Dolby Digital
Codec ID : A_AC3
Duration : 1 h 48 min
Bit rate mode : Constant
Bit rate : 448 kb/s
Channel(s) : 6 channels
Channel layout : L R C LFE Ls Rs
Sampling rate : 48.0 kHz
Frame rate : 31.250 FPS (1536 SPF)
Bit depth : 16 bits
Compression mode : Lossy
Stream size : 347 MiB (7%)
Title : Original
Language : English
Service kind : Complete Main
Default : No
Forced : No
Text #1
ID : 6
Format : UTF-8
Codec ID : S_TEXT/UTF8
Codec ID/Info : UTF-8 Plain Text
Title : full
Language : Russian
Default : No
Forced : No
Text #2
ID : 7
Format : UTF-8
Codec ID : S_TEXT/UTF8
Codec ID/Info : UTF-8 Plain Text
Title : full
Language : English
Default : No
Forced : No
Text #3
ID : 8
Format : UTF-8
Codec ID : S_TEXT/UTF8
Codec ID/Info : UTF-8 Plain Text
Title : SDH
Language : English
Default : No
Forced : No
Menu
00:00:00.000 : en:Chapter 01
00:06:04.906 : en:Chapter 02
00:09:25.523 : en:Chapter 03
00:13:34.522 : en:Chapter 04
00:16:17.059 : en:Chapter 05
00:20:09.333 : en:Chapter 06
00:27:09.461 : en:Chapter 07
00:31:02.861 : en:Chapter 08
00:36:30.146 : en:Chapter 09
00:39:45.967 : en:Chapter 10
00:44:13.192 : en:Chapter 11
00:49:53.782 : en:Chapter 12
00:53:17.194 : en:Chapter 13
00:59:35.113 : en:Chapter 14
01:03:34.019 : en:Chapter 15
01:08:32.483 : en:Chapter 16
01:14:20.498 : en:Chapter 17
01:17:36.485 : en:Chapter 18
01:22:13.387 : en:Chapter 19
01:26:20.675 : en:Chapter 20
01:29:24.901 : en:Chapter 21
01:32:28.042 : en:Chapter 22
01:37:15.371 : en:Chapter 23
01:41:03.015 : en:Chapter 24
--
[korsars.info].t31828.torrent 
Торрент: Зарегистрирован [ 2020-09-11 05:00 ] · 8504D1EA09F670885C9A5F6F42CE758806D29342

Скачать .torrent

Размер .torrent файла 14 KB

Статус: проверено
.torrent скачан: 0 раз
Размер: 5,08 GB
Правила
Похожие темы

[Профиль] [ЛС]
Показать сообщения:    
Ответить на тему

Текущее время: 23-Сен 05:58

Часовой пояс: UTC + 4



Вы не можете начинать темы
Вы не можете отвечать на сообщения
Вы не можете редактировать свои сообщения
Вы не можете удалять свои сообщения
Вы не можете голосовать в опросах
Вы не можете прикреплять файлы к сообщениям
Вы можете скачивать файлы
Анализ сайта korsars.info Яндекс.Метрика