Зловещие мертвецы 3: Армия тьмы / Army of Darkness (1992) BDRip 1080p от HDReactor | P, P2, A | Theatrical Cut

Ответить на тему
Статистика раздачи [Обновить пиров]
Размер:  10,99 GB   |    Зарегистрирован:  11 дней   |    .torrent скачан:  1 раз
Раздают:  7  [  0 KB/s  ]   Подробная статистика пиров
 
   
 
 
Автор Сообщение

4udaki ®

Оффлайн

Медали


Пол: Мужской

Стаж: 5 лет 10 месяцев

Наличие запрета:

Сообщений: 7981

Откуда: korsars.info

Отдача: 2 Mb/s

Загрузка: 20 Mb/s

Нажми


Скачать Adguard бесплатно

Создавать темы 11-Сен-2020 17:00

[Цитировать]

Информация о фильме
Название: Зловещие мертвецы 3: Армия тьмы
Оригинальное название: Army of Darkness
Год выпуска: 1992
Жанр: Ужасы, фэнтези, боевик, комедия
Выпущено: США, Dino De Laurentiis Productions, Renaissance Pictures, Universal Pictures
Режиссер: Сэм Рэйми
В ролях: Брюс Кэмпбелл, Эмбет Дэвидц, Маркус Гилберт, Иэн Эберкромби, Ричард Гроув, Тимоти Патрик Куилл, Майкл Эрл Рейд, Бриджит Фонда, Патриша Тэллман, Тед Рэйми, Дек Андерсон, Брюс Томас, Сара Ширер, Шива Гордон, Билли Брайан, Надин Грайкан, Билл Моусли, Майкл Кенни, Энди Бэйл, Роберт Брент Лаппин, Рэйд Мило, Брэд Брэдбери, Сол Абрамс, Лоррэйн Аксман, Джош Бекер, Шери Бурк, Дон Кэмпбелл, Чарли Кэмпбелл, Харли Коклисс, Кен Джепсон, Уильям Лустиг, Дэвид О’Мэлли, Дэвид Поллисон, Айван Рэйми, Бернард Роуз, Билл Винсент, Крис Уэбстер, Рон Званг
О фильме: По воле случая Эш переносится в далёкое прошлое. Вместе со своим автомобилем и двухстволкой он оказывается в XIII веке. В этом мрачном средневековье люди страдают от сил тьмы. Бедняга Эш был пойман добропорядочными гражданами и помещён в местную тюрьму. Он с трудом смог убедить судью, в том, что он вовсе не шпион из враждебного королевства. Он решает помочь людям в битве с врагами. Чтобы победить, он должен восстановить Некрономикон, старинную магическую книгу, которая поможет ему вернуться в своё время. По неосторожности Эш выпустил на волю Армию тьмы. Как победить живых мертвецов?

Продолжительность: 01:20:47
Перевод: Профессиональный многоголосый, профессиональный двухголосый, авторский
Субтитры: Русские, английские
Файл
Качество: BDRip (1080p)
Видео: MPEG 4 AVC, 16000 Кбит/с, 1920х1080
Аудио #01: Русский многоголосый: AC3, 48 kHz, 5.1, 448 kbps | R5
Аудио #02: Русский многоголосый: AC3, 48 kHz, 2.0, 224 kbps | Неизвестные
Аудио #03: Русский двухголосый : AC3, 48 kHz, 5.1, 448 kbps | Гланц и Королёва
Аудио #04: Русский одноголосый : AC3, 48 kHz, 5.1, 448 kbps | А. Михалёв
Аудио #05: Русский одноголосый : AC3, 48 kHz, 5.1, 448 kbps | М.Яроцкий
Аудио #06: Русский одноголосый : AC3, 48 kHz, 5.1, 448 kbps | Д.Есарев
Аудио #07: Русский одноголосый : AC3, 48 kHz, 2.0, 192 kbps | А.Марченко
Аудио #08: Русский одноголосый : AC3, 48 kHz, 2.0, 192 kbps | П.Прямостанов
Аудио #09: Русский одноголосый : AC3, 48 kHz, 2.0, 192 kbps | Зереницын/Белов
Аудио #10: Английский оригинал : AC3, 48 kHz, 5.1, 448 kbps

МедиаИнфо

Полное имя : J:Army.of.Darkness.1992.Theatrical.Cut.REMASTERED.BDRip.1080p.HDReactor.mkv
Формат : Matroska
Версия формата : Version 2
Размер файла : 11,0 Гбайт
Продолжительность : 1 ч. 20 м.
Общий поток : 19,5 Мбит/сек
Название фильма : ~V ad~
Дата кодирования : UTC 2020-03-21 14:19:37
Программа кодирования : mkvmerge v6.5.0 ('Isn't she lovely') built on Oct 20 2013 12:50:05
Библиотека кодирования : libebml v1.3.0 + libmatroska v1.4.1
Обложка : Yes
Attachments : cover.jpg
Видео
Идентификатор : 1
Формат : AVC
Формат/Информация : Advanced Video Codec
Профиль формата : [email protected]
Настройки формата : CABAC / 4 Ref Frames
Параметр CABAC формата : Да
Параметр RefFrames формата : 4 кадра
Идентификатор кодека : V_MPEG4/ISO/AVC
Продолжительность : 1 ч. 20 м.
Битрейт : 16,0 Мбит/сек
Ширина : 1920 пикселей
Высота : 1080 пикселей
Соотношение сторон : 16:9
Режим частоты кадров : Постоянный
Частота кадров : 23,976 (24000/1001) кадра/сек
Цветовое пространство : YUV
Субдискретизация насыщенности : 4:2:0
Битовая глубина : 8 бит
Тип развёртки : Прогрессивная
Бит/(Пиксели*Кадры) : 0.322
Размер потока : 8,81 Гбайт (80%)
Заголовок : ~V~
Библиотека кодирования : x264 core 159 r2991 1771b55
Настройки программы : cabac=1 / ref=4 / deblock=1:-3:-3 / analyse=0x3:0x133 / me=umh / subme=11 / psy=1 / psy_rd=1.00:0.00 / mixed_ref=1 / me_range=32 / chroma_me=1 / trellis=2 / 8x8dct=1 / cqm=0 / deadzone=21,11 / fast_pskip=0 / chroma_qp_offset=-2 / threads=12 / lookahead_threads=1 / sliced_threads=0 / nr=0 / decimate=0 / interlaced=0 / bluray_compat=0 / constrained_intra=0 / bframes=8 / b_pyramid=2 / b_adapt=2 / b_bias=0 / direct=3 / weightb=1 / open_gop=0 / weightp=2 / keyint=240 / keyint_min=23 / scenecut=40 / intra_refresh=0 / rc=2pass / mbtree=0 / bitrate=16000 / ratetol=1.0 / qcomp=0.70 / qpmin=0 / qpmax=69 / qpstep=4 / cplxblur=20.0 / qblur=0.5 / ip_ratio=1.30 / pb_ratio=1.30 / aq=3:1.00
Язык : Английский
Default : Да
Forced : Нет
Аудио #1
Идентификатор : 2
Формат : AC-3
Формат/Информация : Audio Coding 3
Коммерческое название : Dolby Digital
Идентификатор кодека : A_AC3
Продолжительность : 1 ч. 20 м.
Вид битрейта : Постоянный
Битрейт : 448 Кбит/сек
Каналы : 6 каналов
Channel layout : L R C LFE Ls Rs
Частота : 48,0 КГц
Частота кадров : 31,250 кадров/сек (1536 SPF)
Битовая глубина : 16 бит
Метод сжатия : С потерями
Размер потока : 259 Мбайт (2%)
Заголовок : MVO [R5]
Язык : Русский
Service Kind : Complete Main
Default : Да
Forced : Нет
Аудио #2
Идентификатор : 3
Формат : AC-3
Формат/Информация : Audio Coding 3
Коммерческое название : Dolby Digital
Идентификатор кодека : A_AC3
Продолжительность : 1 ч. 20 м.
Вид битрейта : Постоянный
Битрейт : 224 Кбит/сек
Каналы : 2 канала
Channel layout : L R
Частота : 48,0 КГц
Частота кадров : 31,250 кадров/сек (1536 SPF)
Битовая глубина : 16 бит
Метод сжатия : С потерями
Размер потока : 129 Мбайт (1%)
Заголовок : MVO [unknown]
Язык : Русский
Service Kind : Complete Main
Default : Нет
Forced : Нет
Аудио #3
Идентификатор : 4
Формат : AC-3
Формат/Информация : Audio Coding 3
Коммерческое название : Dolby Digital
Идентификатор кодека : A_AC3
Продолжительность : 1 ч. 20 м.
Вид битрейта : Постоянный
Битрейт : 448 Кбит/сек
Каналы : 6 каналов
Channel layout : L R C LFE Ls Rs
Частота : 48,0 КГц
Частота кадров : 31,250 кадров/сек (1536 SPF)
Битовая глубина : 16 бит
Метод сжатия : С потерями
Размер потока : 259 Мбайт (2%)
Заголовок : DVO [ П. Гланц и И. Королева]
Язык : Русский
Service Kind : Complete Main
Default : Нет
Forced : Нет
Аудио #4
Идентификатор : 5
Формат : AC-3
Формат/Информация : Audio Coding 3
Коммерческое название : Dolby Digital
Идентификатор кодека : A_AC3
Продолжительность : 1 ч. 20 м.
Вид битрейта : Постоянный
Битрейт : 448 Кбит/сек
Каналы : 6 каналов
Channel layout : L R C LFE Ls Rs
Частота : 48,0 КГц
Частота кадров : 31,250 кадров/сек (1536 SPF)
Битовая глубина : 16 бит
Метод сжатия : С потерями
Размер потока : 259 Мбайт (2%)
Заголовок : AVO [А.Михалев]
Язык : Русский
Service Kind : Complete Main
Default : Нет
Forced : Нет
Аудио #5
Идентификатор : 6
Формат : AC-3
Формат/Информация : Audio Coding 3
Коммерческое название : Dolby Digital
Идентификатор кодека : A_AC3
Продолжительность : 1 ч. 20 м.
Вид битрейта : Постоянный
Битрейт : 448 Кбит/сек
Каналы : 6 каналов
Channel layout : L R C LFE Ls Rs
Частота : 48,0 КГц
Частота кадров : 31,250 кадров/сек (1536 SPF)
Битовая глубина : 16 бит
Метод сжатия : С потерями
Размер потока : 259 Мбайт (2%)
Заголовок : AVO [М.Яроцкий]
Язык : Русский
Service Kind : Complete Main
Default : Нет
Forced : Нет
Аудио #6
Идентификатор : 7
Формат : AC-3
Формат/Информация : Audio Coding 3
Коммерческое название : Dolby Digital
Идентификатор кодека : A_AC3
Продолжительность : 1 ч. 20 м.
Вид битрейта : Постоянный
Битрейт : 448 Кбит/сек
Каналы : 6 каналов
Channel layout : L R C LFE Ls Rs
Частота : 48,0 КГц
Частота кадров : 31,250 кадров/сек (1536 SPF)
Битовая глубина : 16 бит
Метод сжатия : С потерями
Размер потока : 259 Мбайт (2%)
Заголовок : AVO [Д.Есарев]
Язык : Русский
Service Kind : Complete Main
Default : Нет
Forced : Нет
Аудио #7
Идентификатор : 8
Формат : AC-3
Формат/Информация : Audio Coding 3
Коммерческое название : Dolby Digital
Идентификатор кодека : A_AC3
Продолжительность : 1 ч. 20 м.
Вид битрейта : Постоянный
Битрейт : 192 Кбит/сек
Каналы : 2 канала
Channel layout : L R
Частота : 48,0 КГц
Частота кадров : 31,250 кадров/сек (1536 SPF)
Битовая глубина : 16 бит
Метод сжатия : С потерями
Размер потока : 111 Мбайт (1%)
Заголовок : AVO [А.Марченко]
Язык : Русский
Service Kind : Complete Main
Default : Нет
Forced : Нет
Аудио #8
Идентификатор : 9
Формат : AC-3
Формат/Информация : Audio Coding 3
Коммерческое название : Dolby Digital
Идентификатор кодека : A_AC3
Продолжительность : 1 ч. 20 м.
Вид битрейта : Постоянный
Битрейт : 192 Кбит/сек
Каналы : 2 канала
Channel layout : L R
Частота : 48,0 КГц
Частота кадров : 31,250 кадров/сек (1536 SPF)
Битовая глубина : 16 бит
Метод сжатия : С потерями
Размер потока : 111 Мбайт (1%)
Заголовок : AVO [П.Прямостанов]
Язык : Русский
Service Kind : Complete Main
Default : Нет
Forced : Нет
Аудио #9
Идентификатор : 10
Формат : AC-3
Формат/Информация : Audio Coding 3
Коммерческое название : Dolby Digital
Идентификатор кодека : A_AC3
Продолжительность : 1 ч. 20 м.
Вид битрейта : Постоянный
Битрейт : 192 Кбит/сек
Каналы : 2 канала
Channel layout : L R
Частота : 48,0 КГц
Частота кадров : 31,250 кадров/сек (1536 SPF)
Битовая глубина : 16 бит
Метод сжатия : С потерями
Размер потока : 111 Мбайт (1%)
Заголовок : AVO [С. Белов / Зереницын]
Язык : Русский
Service Kind : Complete Main
Default : Нет
Forced : Нет
Аудио #10
Идентификатор : 11
Формат : AC-3
Формат/Информация : Audio Coding 3
Коммерческое название : Dolby Digital
Идентификатор кодека : A_AC3
Продолжительность : 1 ч. 20 м.
Вид битрейта : Постоянный
Битрейт : 448 Кбит/сек
Каналы : 6 каналов
Channel layout : L R C LFE Ls Rs
Частота : 48,0 КГц
Частота кадров : 31,250 кадров/сек (1536 SPF)
Битовая глубина : 16 бит
Метод сжатия : С потерями
Размер потока : 259 Мбайт (2%)
Заголовок : original
Язык : Английский
Service Kind : Complete Main
Default : Нет
Forced : Нет
Текст #1
Идентификатор : 12
Формат : UTF-8
Идентификатор кодека : S_TEXT/UTF8
Идентификатор кодека/Информация : UTF-8 Plain Text
Язык : Русский
Default : Нет
Forced : Нет
Текст #2
Идентификатор : 13
Формат : UTF-8
Идентификатор кодека : S_TEXT/UTF8
Идентификатор кодека/Информация : UTF-8 Plain Text
Язык : Английский
Default : Нет
Forced : Нет
Меню
00:00:00.000 : en:Chapter 01
00:05:33.958 : en:Chapter 02
00:10:02.602 : en:Chapter 03
00:15:30.554 : en:Chapter 04
00:19:24.788 : en:Chapter 05
00:24:57.496 : en:Chapter 06
00:34:34.072 : en:Chapter 07
00:43:14.216 : en:Chapter 08
00:49:07.945 : en:Chapter 09
00:53:16.193 : en:Chapter 10
01:03:31.432 : en:Chapter 11
01:11:46.302 : en:Chapter 12
--Релиз от:
[korsars.info].t31841.torrent 
Торрент: Зарегистрирован [ 2020-09-11 17:00 ] · 5C3549C5890A59040A761DA6CF5540A5A39FDE1B

Скачать .torrent

Размер .torrent файла 29 KB

Статус: проверено
.torrent скачан: 1 раз
Размер: 10,99 GB
Правила
Похожие темы

[Профиль] [ЛС]
Показать сообщения:    
Ответить на тему

Текущее время: 23-Сен 08:00

Часовой пояс: UTC + 4



Вы не можете начинать темы
Вы не можете отвечать на сообщения
Вы не можете редактировать свои сообщения
Вы не можете удалять свои сообщения
Вы не можете голосовать в опросах
Вы не можете прикреплять файлы к сообщениям
Вы можете скачивать файлы
Анализ сайта korsars.info Яндекс.Метрика