Агент Ева / Ava (2020) BDRip-AVC | iTunes

Ответить на тему
Статистика раздачи [Обновить пиров]
Размер:  1,41 GB   |    Зарегистрирован:  7 дней   |    .torrent скачан:  0 раз
Раздают:  41  [  0 KB/s  ]   Качают:  3  [  0 KB/s  ]   Подробная статистика пиров
 
   
 
 
Автор Сообщение

4udaki ®

Оффлайн

Медали


Пол: Мужской

Стаж: 5 лет 10 месяцев

Наличие запрета:

Сообщений: 7936

Откуда: korsars.info

Отдача: 2 Mb/s

Загрузка: 20 Mb/s

Нажми


Скачать Adguard бесплатно

Создавать темы 11-Сен-2020 20:21

[Цитировать]

«Kill. Or Be Killed»Информация о фильме
Название: Агент Ева
Оригинальное название: Ava
Год выхода: 2020
Жанр: Боевик, триллер, драма, криминал, детектив
Режиссер: Тейт Тейлор
В ролях: Джессика Честейн, Джон Малкович, Джесс Вейкслер, Коммон, Джина Дэвис, Колин Фаррелл, Йоан Гриффит, Диана Сильверс, Джоан Чэнь, Эфка Кваракиюс
О фильме:
Она умна, красива и чрезвычайно опасна. Перемещаясь по миру словно тень, наёмная убийца Ева убирает людей по заданию руководства, но с очередным объектом всё проходит не так гладко. Когда Ева решает наладить отношения с семьёй - сестрой и матерью, которых она не видела 8 лет, - на неё вдруг совершается покушение.


Страна: США
Студия: Freckle Films, Voltage Pictures
Продолжительность: 01:36:49
Перевод:
• Профессиональный (полное дублирование) | iTunes

Файл
Качество: BDRip-AVC
Исходник: Ava.2020.BDREMUX.1080p.seleZen.mkv
Формат: MKV
Кодек: MPEG-4 AVC
Видео: 832x348 (2,40:1), 23,976 fps, MPEG-4 AVC ~ 1707 Kbps avg, 0.246 bit/pixel
Аудио: AC3, 48 kHz, 6 ch, ~384.00 kbps avg | русский | iTunes
Субтитры: Русские (Forced, Full)

Инфо-файл

Общее
Уникальный идентификатор : 68913807394255732828569873485970683521 (0x33D85107BB6DD335858DD28EB2223681)
Полное имя : Ava.2020.iT.BDRip.1.41Gb.x264.mkv
Формат : Matroska
Версия формата : Version 4
Размер файла : 1,41 Гбайт
Продолжительность : 1 ч. 36 м.
Общий поток : 2 085 Кбит/сек
Название фильма : Агент Ева / Ava (2020)
Дата кодирования : UTC 2020-09-10 19:09:43
Программа кодирования : mkvmerge v47.0.0 ('Black Flag') 64-bit
Библиотека кодирования : libebml v1.3.10 + libmatroska v1.5.2
Обложка : Yes
Attachments : cover.jpg
Видео
Идентификатор : 1
Формат : AVC
Формат/Информация : Advanced Video Codec
Профиль формата : [email protected]
Настройки формата : CABAC / 12 Ref Frames
Параметр CABAC формата : Да
Параметр RefFrames формата : 12 кадров
Идентификатор кодека : V_MPEG4/ISO/AVC
Продолжительность : 1 ч. 36 м.
Битрейт : 1 707 Кбит/сек
Ширина : 832 пикселя
Высота : 348 пикселей
Соотношение сторон : 2,40:1
Режим частоты кадров : Постоянный
Частота кадров : 23,976 кадра/сек
Цветовое пространство : YUV
Субдискретизация насыщенности : 4:2:0
Битовая глубина : 8 бит
Тип развёртки : Прогрессивная
Бит/(Пиксели*Кадры) : 0.246
Размер потока : 1,15 Гбайт (81%)
Заголовок : #stillet
Библиотека кодирования : x264 core 152 r2851bm ba24899
Настройки программы : cabac=1 / ref=12 / deblock=1:-3:-3 / analyse=0x3:0x113 / me=umh / subme=11 / psy=1 / psy_rd=1.00:0.15 / mixed_ref=1 / me_range=32 / chroma_me=1 / trellis=2 / 8x8dct=1 / cqm=0 / deadzone=21,11 / fast_pskip=0 / chroma_qp_offset=-3 / threads=8 / lookahead_threads=3 / sliced_threads=0 / nr=0 / decimate=0 / interlaced=0 / bluray_compat=0 / constrained_intra=0 / bframes=11 / b_pyramid=2 / b_adapt=2 / b_bias=0 / direct=3 / weightb=1 / open_gop=0 / weightp=2 / keyint=240 / keyint_min=23 / scenecut=40 / intra_refresh=0 / rc=2pass / mbtree=0 / bitrate=1707 / ratetol=1.0 / qcomp=0.60 / qpmin=0 / qpmax=69 / qpstep=4 / cplxblur=20.0 / qblur=0.5 / ip_ratio=1.40 / pb_ratio=1.30 / aq=1:1.00
Язык : English
Default : Да
Forced : Нет
Аудио
Идентификатор : 2
Формат : AC-3
Формат/Информация : Audio Coding 3
Коммерческое название : Dolby Digital
Идентификатор кодека : A_AC3
Продолжительность : 1 ч. 36 м.
Вид битрейта : Постоянный
Битрейт : 384 Кбит/сек
Каналы : 6 каналов
Channel layout : L R C LFE Ls Rs
Частота : 48,0 КГц
Частота кадров : 31,250 кадров/сек (1536 SPF)
Метод сжатия : С потерями
Размер потока : 266 Мбайт (18%)
Заголовок : Dub [iTunes]
Язык : Russian
Service kind : Complete Main
Default : Да
Forced : Да
Текст #1
Идентификатор : 3
Формат : UTF-8
Идентификатор кодека : S_TEXT/UTF8
Идентификатор кодека/Информация : UTF-8 Plain Text
Продолжительность : 54 м. 4 с.
Битрейт : 7 бит/сек
Count of elements : 55
Размер потока : 2,93 Кбайт (0%)
Заголовок : Forced | iTunes
Язык : Russian
Default : Да
Forced : Да
Текст #2
Идентификатор : 4
Формат : UTF-8
Идентификатор кодека : S_TEXT/UTF8
Идентификатор кодека/Информация : UTF-8 Plain Text
Продолжительность : 1 ч. 31 м.
Битрейт : 71 бит/сек
Count of elements : 1094
Размер потока : 47,7 Кбайт (0%)
Заголовок : Full | iTunes
Язык : Russian
Default : Нет
Forced : Нет
Меню
00:00:00.000 : en:Глава 01
00:11:07.542 : en:Глава 02
00:21:53.145 : en:Глава 03
00:32:22.899 : en:Глава 04
00:44:26.497 : en:Глава 05
00:58:33.427 : en:Глава 06
01:10:38.192 : en:Глава 07
01:18:23.949 : en:Глава 08
01:32:28.752 : en:Глава 09
-
[korsars.info].t31845.torrent 
Торрент: Зарегистрирован [ 2020-09-11 20:21 ] · 48587CF1CCBF7D2D7CF4BA37EDA9830EC859572A

Скачать .torrent

Размер .torrent файла 15 KB

Статус: проверено
.torrent скачан: 0 раз
Размер: 1,41 GB
Правила
Похожие темы

[Профиль] [ЛС]
Показать сообщения:    
Ответить на тему

Текущее время: 19-Сен 05:43

Часовой пояс: UTC + 4



Вы не можете начинать темы
Вы не можете отвечать на сообщения
Вы не можете редактировать свои сообщения
Вы не можете удалять свои сообщения
Вы не можете голосовать в опросах
Вы не можете прикреплять файлы к сообщениям
Вы можете скачивать файлы
Анализ сайта korsars.info Яндекс.Метрика