Месть солдата / A Soldier's Revenge (2020) BDRip-AVC | L

Ответить на тему
Статистика раздачи [Обновить пиров]
Размер:  1,67 GB   |    Зарегистрирован:  11 дней   |    .torrent скачан:  0 раз
Раздают:  69  [  0 KB/s  ]   Качают:  1  [  0 KB/s  ]   Подробная статистика пиров
 
   
 
 
Автор Сообщение

4udaki ®

Оффлайн

Медали


Пол: Мужской

Стаж: 5 лет 10 месяцев

Наличие запрета:

Сообщений: 7981

Откуда: korsars.info

Отдача: 2 Mb/s

Загрузка: 20 Mb/s

Нажми


Скачать Adguard бесплатно

Создавать темы 12-Сен-2020 05:00

[Цитировать]

Информация о фильме
Название: Месть солдата
Оригинальное название: A Soldier's Revenge
Год выхода: 2020
Жанр: Вестерн, драма
Режиссер: Майкл Фейфер
В ролях: Нил Бледсо, Роб Майес, АннаЛинн МакКорд, Вэл Килмер, Джейк Бьюзи, Майкл Боуэн, Джей Пикетт, Майкл Уэлш, Джеймс Руссо, Питер Шерайко
О фильме:
Преследуемый ужасами военных лет, Фрэнк Коннор проводит всё своё время за двумя занятиями: пьет виски и ловит беглецов. Однажды у порога его дома оказывается два ребенка, которые отчаянно просят отыскать их пропавшую мать. Фрэнку предстоит лицом к лицу столкнуться со своим прошлым и разобраться с печально известным преступником майором Бриггсом, с которым у него давние счеты.

Страна: США
Студия: Feifer Worldwide, Caravan West Productions
Продолжительность: 02:20:16
Перевод: Любительский (многоголосый, закадровый) | Синема УС
Субтитры: English
Файл
Формат: Matroska
Качество: BDRip-AVC
Видео: 960x408 at 23.976 fps, [email protected], ~1451 kbps, 0.155 bpp
Аудио: AC3, 2 ch, ~256 kbps - | Русский | -
Формат субтитров: softsub (SRT)
***Релиз от: -=DoMiNo=-

M/I

x264 [info]: frame I:1484 Avg QP:16.05 size: 48080
x264 [info]: frame P:41319 Avg QP:17.81 size: 16615
x264 [info]: frame B:158274 Avg QP:19.81 size: 4823
General
Complete name : Месть солдата.(2020).BDRip-AVC.mkv
Format : Matroska
Format version : Version 4
File size : 1.67 GiB
Duration : 2 h 20 min
Overall bit rate : 1 704 kb/s
Movie name : Месть солдата / A Soldier's Revenge (2020)
Encoded date : UTC 2020-08-18 14:00:13
Writing application : mkvmerge v49.0.0 ('Sick Of Losing Soulmates') 64-bit
Writing library : libebml v1.4.0 + libmatroska v1.6.1
Cover : Yes
Attachments : Cover.jpg / Cover 2.jpg
Video
ID : 1
Format : AVC
Format/Info : Advanced Video Codec
Format profile : [email protected]
Format settings : CABAC / 12 Ref Frames
Format settings, CABAC : Yes
Format settings, Reference : 12 frames
Codec ID : V_MPEG4/ISO/AVC
Duration : 2 h 19 min
Bit rate : 1 451 kb/s
Width : 960 pixels
Height : 408 pixels
Display aspect ratio : 2.35:1
Frame rate mode : Constant
Frame rate : 23.976 (24000/1001) FPS
Color space : YUV
Chroma subsampling : 4:2:0
Bit depth : 8 bits
Scan type : Progressive
Bits/(Pixel*Frame) : 0.155
Stream size : 1.42 GiB (85%)
Title : -=DoMiNo=-
Writing library : x264 core 161 r3018 db0d417
Encoding settings : cabac=1 / ref=12 / deblock=1:-3:-3 / analyse=0x3:0x133 / me=umh / subme=11 / psy=1 / psy_rd=1.00:0.15 / mixed_ref=1 / me_range=32 / chroma_me=1 / trellis=2 / 8x8dct=1 / cqm=0 / deadzone=21,11 / fast_pskip=0 / chroma_qp_offset=-3 / threads=6 / lookahead_threads=1 / sliced_threads=0 / nr=0 / decimate=1 / interlaced=0 / bluray_compat=0 / constrained_intra=0 / bframes=10 / b_pyramid=2 / b_adapt=2 / b_bias=0 / direct=1 / weightb=1 / open_gop=0 / weightp=2 / keyint=250 / keyint_min=23 / scenecut=40 / intra_refresh=0 / rc_lookahead=60 / rc=crf / mbtree=0 / crf=19.0 / qcomp=0.60 / qpmin=0 / qpmax=69 / qpstep=4 / vbv_maxrate=50000 / vbv_bufsize=62500 / crf_max=0.0 / nal_hrd=none / filler=0 / ip_ratio=1.40 / pb_ratio=1.30 / aq=1:1.00
Language : English
Default : Yes
Forced : No
Color range : Limited
Color primaries : BT.709
Transfer characteristics : BT.709
Matrix coefficients : BT.709
Audio
ID : 2
Format : AC-3
Format/Info : Audio Coding 3
Commercial name : Dolby Digital
Codec ID : A_AC3
Duration : 2 h 20 min
Bit rate mode : Constant
Bit rate : 256 kb/s
Channel(s) : 2 channels
Channel layout : L R
Sampling rate : 48.0 kHz
Frame rate : 31.250 FPS (1536 SPF)
Compression mode : Lossy
Stream size : 257 MiB (15%)
Title : MVO_[Синема УС]
Language : Russian
Service kind : Complete Main
Default : Yes
Forced : No
Text
ID : 3
Format : UTF-8
Codec ID : S_TEXT/UTF8
Codec ID/Info : UTF-8 Plain Text
Duration : 2 h 12 min
Bit rate : 43 b/s
Count of elements : 1548
Stream size : 42.5 KiB (0%)
Title : English-SRT
Language : English
Default : No
Forced : No
Menu
00:00:00.000 : en:Chapter 01
00:13:26.764 : en:Chapter 02
00:20:39.905 : en:Chapter 03
00:32:31.240 : en:Chapter 04
00:44:25.704 : en:Chapter 05
00:57:16.933 : en:Chapter 06
01:09:32.334 : en:Chapter 07
01:17:58.048 : en:Chapter 08
01:29:27.153 : en:Chapter 09
01:43:40.297 : en:Chapter 10
01:59:42.175 : en:Chapter 11
02:14:33.273 : en:Chapter 12
-
[korsars.info].t31857.torrent 
Торрент: Зарегистрирован [ 2020-09-12 05:00 ] · 0D29401077E922CE84DEA41BA4D566F80181EE9E

Скачать .torrent

Размер .torrent файла 68 KB

Статус: проверено
.torrent скачан: 0 раз
Размер: 1,67 GB
Правила
Похожие темы

[Профиль] [ЛС]
Показать сообщения:    
Ответить на тему

Текущее время: 23-Сен 07:06

Часовой пояс: UTC + 4



Вы не можете начинать темы
Вы не можете отвечать на сообщения
Вы не можете редактировать свои сообщения
Вы не можете удалять свои сообщения
Вы не можете голосовать в опросах
Вы не можете прикреплять файлы к сообщениям
Вы можете скачивать файлы
Анализ сайта korsars.info Яндекс.Метрика