Джибиэйт / Gibiate [S01x01-09 из 12] (2020) WEBDRip 1080p от KORSARS.INFO | Crunchyroll

Ответить на тему
Статистика раздачи [Обновить пиров]
Размер:  12,2 GB   |    Зарегистрирован:  10 дней   |    .torrent скачан:  10 раз
Раздают:  15  [  110 KB/s  ]   Качают:  10  [  0 KB/s  ]   Подробная статистика пиров
 
   
 
 
Автор Сообщение

4udaki ®

Оффлайн

Медали


Пол: Мужской

Стаж: 5 лет 10 месяцев

Наличие запрета:

Сообщений: 7981

Откуда: korsars.info

Отдача: 2 Mb/s

Загрузка: 20 Mb/s

Нажми


Скачать Adguard бесплатно

Создавать темы 12-Сен-2020 17:14

[Цитировать]

Джибиэйт / Gibiate-Год выпуска: 2020
Страна:
Япония
Жанр: экшен, фэнтези, ужасы, боевые искусства, самураи
Продолжительность: ~ 00:24:00 (серия)
Перевод: Профессиональный (многоголосый, закадровый) | Crunchyroll
Режиссёр: Масахико Комино
Субтитры: отсутствуют-Рейтинг:
-Релиз от: -Описание:
2030 год, Землю полностью захлестнула вирусная болезнь под названием Джибия, которая превращает инфицированных людей в различных монстров в зависимости от их возраста, пола и расы. Самурай и ниндзя из раннего периода эпохи Эдо вместе путешествуют во времени и прибывают в разрушенную Японию, чтобы помочь профессору, работающему над лекарством от вируса. Вместе они сражаются с бесчисленными монстрами Джибии, преступниками и другими свирепыми врагами, стоящими на пути к спасению человечества.-Качество: WEBRip 1080p
Формат: MKV (MPEG-4 AVC)
Видео: 1920x1080, ~8000 kb/s, 23.944 FPS, 8 bit
Аудио RUS: AAC LC, 128 kb/s, 2 channels, 44.1 kHz-

MediaInfo

General
Unique ID                   : 189199363881598602447576021199261718182 (0x8E5678D7578FE96C162BAAA89EF2D6A6)
Complete name               : [KORSARS]_Gibiate.[S01E01].WEBRip.1080p_[Crunchyroll].mkv
Format                      : Matroska
Format version              : Version 4
File size                   : 1.39 GiB
Duration                    : 24 min 39 s
Overall bit rate            : 8 086 kb/s
Movie name                  : [KORSARS]_Gibiate.[S01E01].WEBRip.1080p_[Crunchyroll]
Encoded date                : UTC 2020-09-07 13:41:45
Writing application         : mkvmerge v50.0.0 ('Awakenings') 64-bit
Writing library             : libebml v1.4.0 + libmatroska v1.6.2
Video
ID                          : 1
Format                      : AVC
Format/Info                 : Advanced Video Codec
Format profile              : [email protected]
Format settings             : CABAC / 4 Ref Frames
Format settings, CABAC      : Yes
Format settings, Reference  : 4 frames
Codec ID                    : V_MPEG4/ISO/AVC
Duration                    : 24 min 39 s
Bit rate                    : 8 000 kb/s
Width                       : 1 920 pixels
Height                      : 1 080 pixels
Display aspect ratio        : 16:9
Frame rate mode             : Variable
Frame rate                  : 23.944 FPS
Color space                 : YUV
Chroma subsampling          : 4:2:0
Bit depth                   : 8 bits
Scan type                   : Progressive
Bits/(Pixel*Frame)          : 0.161
Stream size                 : 1.37 GiB (98%)
Title                       : [KORSARS]_Gibiate.[S01E01].WEBRip.1080p_[Crunchyroll]
Writing library             : x264 core 142
Encoding settings           : cabac=1 / ref=4 / deblock=1:1:1 / analyse=0x3:0x113 / me=umh / subme=8 / psy=1 / psy_rd=0.40:0.00 / mixed_ref=1 / me_range=16 / chroma_me=1 / trellis=1 / 8x8dct=1 / cqm=0 / deadzone=21,11 / fast_pskip=1 / chroma_qp_offset=-2 / threads=12 / lookahead_threads=2 / sliced_threads=0 / nr=0 / decimate=1 / interlaced=0 / bluray_compat=0 / constrained_intra=0 / bframes=0 / weightp=2 / keyint=96 / keyint_min=48 / scenecut=40 / intra_refresh=0 / rc_lookahead=48 / rc=2pass / mbtree=1 / bitrate=8000 / ratetol=1.0 / qcomp=0.60 / qpmin=0 / qpmax=69 / qpstep=4 / cplxblur=20.0 / qblur=0.5 / vbv_maxrate=12000 / vbv_bufsize=18000 / nal_hrd=none / filler=0 / ip_ratio=1.40 / aq=1:0.60
Default                     : Yes
Forced                      : No
Audio
ID                          : 2
Format                      : AAC LC
Format/Info                 : Advanced Audio Codec Low Complexity
Codec ID                    : A_AAC-2
Duration                    : 24 min 39 s
Bit rate                    : 128 kb/s
Channel(s)                  : 2 channels
Channel layout              : L R
Sampling rate               : 44.1 kHz
Frame rate                  : 43.066 FPS (1024 SPF)
Compression mode            : Lossy
Delay relative to video     : 5 ms
Stream size                 : 22.5 MiB (2%)
Language                    : Russian
Default                     : Yes
Forced                      : No
--Для доп. информации-Финансовая помощь автору
[korsars.info].t31870.torrent 
Торрент: Зарегистрирован [ 2020-09-12 17:14 ] · 6102E2099F615DE3B958F58636AB4251F1359A71

Скачать .torrent

Размер .torrent файла 32 KB

Статус: проверено
.torrent скачан: 10 раз
Размер: 12,2 GB
Правила
Rentgen(12-Сен-20), Reventor(13-Сен-20)

[Профиль] [ЛС]

Rentgen

Оффлайн

Медали


Пол: Не указан

Стаж: 7 месяцев 27 дней

Наличие запрета:

Сообщений: 46

Отдача: не определено

Загрузка: не определено

Нажми


Скачать Adguard бесплатно

Создавать темы 12-Сен-2020 18:00 (спустя 46 минут)

[Цитировать]

Уже побаиваюсь смотреть в озвучке от Кранчей (по их отношению к делу можно вполне приравнять к самой ужасной студии дубляжа - СВ-Дубль, которые испортили Психопаспорт и 1-й сезон САО).
Учитывая весь тот ужас, что был в предыдущем весеннем и летнем сезонах (лучше пройти мимо).
[Профиль] [ЛС]
Показать сообщения:    
Ответить на тему

Текущее время: 23-Сен 06:40

Часовой пояс: UTC + 4



Вы не можете начинать темы
Вы не можете отвечать на сообщения
Вы не можете редактировать свои сообщения
Вы не можете удалять свои сообщения
Вы не можете голосовать в опросах
Вы не можете прикреплять файлы к сообщениям
Вы можете скачивать файлы
Анализ сайта korsars.info Яндекс.Метрика