Изумительная медсестра Нанако / Nanako Kaitai Shinsho [S01] (1999-2000) DVDRip от Deadmauvlad | P | Лицензия

Ответить на тему
Статистика раздачи [Обновить пиров]
Размер:  2,19 GB   |    Зарегистрирован:  6 дней   |    .torrent скачан:  0 раз
Раздают:  6  [  0 KB/s  ]   Качают:  1  [  0 KB/s  ]   Подробная статистика пиров
 
   
 
 
Автор Сообщение

4udaki ®

Оффлайн

Медали


Пол: Мужской

Стаж: 5 лет 10 месяцев

Наличие запрета:

Сообщений: 7936

Откуда: korsars.info

Отдача: 2 Mb/s

Загрузка: 20 Mb/s

Нажми


Скачать Adguard бесплатно

Создавать темы 13-Сен-2020 01:00

[Цитировать]

Информация о фильме
Название: Невероятная Нанако / Нанако / Изумительная медсестра Нанако
Название по Английски Nanako Kaitai Shinsho (Amazing Nurse Nanako)
Оригинальное название (Японское) 菜々子解体診書
Год: 1999-2000
Жанр: комедия, приключения, фантастика, этти
Категория: OVA
Выпуск: с 5 июля 1999 по 7 апреля 2000
Режиссер: Нэгиси Хироси
Автор оригинала: Распутин Яно
В главных ролях: Стивен Бендик, Лорен Бивенс, Веспер Барнетт, Ховард Кларендон, Брэд ДеМосс, Scott Forno, Джэми Галлардо, Джесси Д. Гойнс, Рук Томас Хайн, Толизин Джаффе
Описание: История повествует о приключениях девушки по имени Нанако. Нанако — горничная и медсестра в госпитале-лаборатории молодого врача Огами на американской секретной военной базе. Она настолько наивна, неуклюжа и так часто попадает в разные неурядицы с битьем посуды, поломкой мебели и медицинского инвентаря, что становится непонятно: как эта 16-летняя девушка до сих пор не лишилась работы? Неужели только благодаря своим потрясающим формам? Но ответ на этот вопрос лежит гораздо глубже, и знает его только доктор Огами…

Продолжительность: 06 Серий x ~00:30:00
Производство: Япония
Студия: Radix
Перевод: Профессиональный (Многоголосый Закадровый) MC Entertainment [Лицензия]
Возрастное ограничение: 18+
Файл
Кодек: XViD
Качество: DVDRip [Исходник: DVD9]
Формат видео: XViD / AVI
Видео: 720x528 (4:3), 23.976 fps, 1 493 kb/s (0.164 bit/pixel)
Аудио №1: AC3, 48.0 kHz, 2 ch, 192 kb/s, CBR | | MC Entertainment
Аудио №2: AC3, 48.0 kHz, 2 ch, 192 kb/s, CBR | | Japan (Оригинал)
Субтитры: Русские; English

MediaInfo

Общее
Полное имя : [Deadmau- RAWS] Nanako.Kaitai.Shinsho.RUS.JAP.DVDRip.Deadmauvlad.Ep.01.avi
Формат : AVI
Формат/Информация : Audio Video Interleave
Размер файла : 364 Мбайт
Продолжительность : 26 м. 58 с.
Общий поток : 1886 Кбит/сек
Название фильма : [Deadmau- RAWS] Изумительная.медсестра.Нанако.RUS.JAP.DVDRip.Deadmauvlad.Серия.01
Режиссёр : Encoder By Deadmauvlad
Жанр : этти
Программа кодирования : VirtualDubMod 1.5.10.3 | www.virtualdub-fr.org || (build 2550/release)
Формат оригинала/Имя : Аниме
Авторское право : Encoder By Deadmauvlad
Примечание : Encoder By Deadmauvlad
Видео
Идентификатор : 0
Формат : MPEG-4 Visual
Профиль формата : Advanced [email protected]
Настройки формата : BVOP1 / Custom Matrix
Параметр BVOP формата : 1
Параметр QPel формата : Нет
Параметр GMC формата : Без точки перехода
Параметр матрицы формата : Выборочная
Идентификатор кодека : XVID
Идентификатор кодека/Подсказка : XviD
Продолжительность : 26 м. 58 с.
Битрейт : 1493 Кбит/сек
Ширина : 720 пикселей
Высота : 528 пикселей
Соотношение сторон : 4:3
Частота кадров : 23,976 (24000/1001) кадра/сек
Цветовое пространство : YUV
Субдискретизация насыщенности : 4:2:0
Битовая глубина : 8 бит
Тип развёртки : Прогрессивная
Метод сжатия : С потерями
Бит/(Пиксели*Кадры) : 0.164
Размер потока : 288 Мбайт (79%)
Библиотека кодирования : XviD 73
Аудио #1
Идентификатор : 1
Формат : AC-3
Формат/Информация : Audio Coding 3
Коммерческое название : Dolby Digital
Идентификатор кодека : 2000
Продолжительность : 26 м. 37 с.
Вид битрейта : Постоянный
Битрейт : 192 Кбит/сек
Каналы : 2 канала
ChannelLayout : L R
Частота : 48,0 КГц
Частота кадров : 31,250 кадров/сек (1536 SPF)
Метод сжатия : С потерями
Размер потока : 36,6 Мбайт (10%)
Выравнивание : Разделение по промежуткам
Продолжительность промежутка : 42 мс. (1,01 видеокадр)
Время предзагрузки промежутка : 500 мс.
Аудио #2
Идентификатор : 2
Формат : AC-3
Формат/Информация : Audio Coding 3
Коммерческое название : Dolby Digital
Идентификатор кодека : 2000
Продолжительность : 26 м. 37 с.
Вид битрейта : Постоянный
Битрейт : 192 Кбит/сек
Каналы : 2 канала
ChannelLayout : L R
Частота : 48,0 КГц
Частота кадров : 31,250 кадров/сек (1536 SPF)
Метод сжатия : С потерями
Размер потока : 36,6 Мбайт (10%)
Выравнивание : Разделение по промежуткам
Продолжительность промежутка : 42 мс. (1,01 видеокадр)
Время предзагрузки промежутка : 500 мс.

Эпизоды:

1 серия — «Первая спираль»
2 серия — «Воспоминания о тебе»
3 серия — «Сумасшедший пациент»
4 серия — «Хлопушки»
5 серия — «Последняя спираль. Первая часть»
6 серия — «Последняя спираль. Вторая часть»
--Релиз / Автор рипа: Deadmauvlad >_<
[korsars.info].t31877.torrent 
Торрент: Зарегистрирован [ 2020-09-13 01:00 ] · 0D6C675EB6B1C87E691F20BFE74AF100B2E71B45

Скачать .torrent

Размер .torrent файла 15 KB

Статус: проверено
.torrent скачан: 0 раз
Размер: 2,19 GB
Правила

[Профиль] [ЛС]
Показать сообщения:    
Ответить на тему

Текущее время: 19-Сен 05:50

Часовой пояс: UTC + 4



Вы не можете начинать темы
Вы не можете отвечать на сообщения
Вы не можете редактировать свои сообщения
Вы не можете удалять свои сообщения
Вы не можете голосовать в опросах
Вы не можете прикреплять файлы к сообщениям
Вы можете скачивать файлы
Анализ сайта korsars.info Яндекс.Метрика