Глотай / Swallow (2019) BDRip-AVC от Generalfilm | iTunes

Ответить на тему
Статистика раздачи [Обновить пиров]
Размер:  1,13 GB   |    Зарегистрирован:  9 дней   |    .torrent скачан:  4 раза
Раздают:  12  [  0 KB/s  ]   Качают:  3  [  0 KB/s  ]   Подробная статистика пиров
 
   
 
 
Автор Сообщение

4udaki ®

Оффлайн

Медали


Пол: Мужской

Стаж: 5 лет 10 месяцев

Наличие запрета:

Сообщений: 7960

Откуда: korsars.info

Отдача: 2 Mb/s

Загрузка: 20 Mb/s

Нажми


Скачать Adguard бесплатно

Создавать темы 13-Сен-2020 13:00

[Цитировать]

Глотай / Swallow Информация о фильме
Название: Глотай
Оригинальное название: Swallow
Год выпуска: 2019
Страна: Франция, США
Жанр: триллер, драма-Перевод: Дублированный [iTunes]
Продолжительность: 01:35:14-Режиссер: Карло Мирабелла-Дэйвис
В ролях: Хейли Беннетт, Остин Стоуэлл, Дэнис О’Хэр, Элизабет Марвел, Дэвид Раш, Луна Лорен Велес, Забрина Гевара, Лэйт Накли, Бабак Тафти, Николь Кан-Описание:
У молодой домохозяйки Хантер вроде бы всё хорошо - прекрасный дом, богатый муж, на работу ходить не нужно. Но когда женщина беременеет, и семейство окружает её удушающей заботой, она вдруг начинает находить странное утешение в глотании всяких неподходящих для этого предметов.-Рейтинг:

MPAA: R - Лицам до 17 лет обязательно присутствие взрослого-Качество: BDRip-AVC
Формат: MKV
Видео: AVC, 1024x428 (2.40:1), 1314 kbps, 23,976 fps, 0,125 bpp
Аудио: русский / AC3 / 5.1 / 48 kHz / 384 kbps / ||
Навигация по главам: есть-Релиз от: -

ОтчетМедиаИнфо

General
Unique ID : 254281146609637884610243186697601295132 (0xBF4CC477EBFE807391C8CBFCF668231C)
Complete name : G:GFSwallow.2019.BDRip.AVC.Rip.by.HardwareMining.R.G.Generalfilm.mkv
Format : Matroska
Format version : Version 4 / Version 2
File size : 1.13 GiB
Duration : 1 h 35 min
Overall bit rate : 1 699 kb/s
Movie name : Rip.by.HardwareMining.R.G.Generalfilm
Encoded date : UTC 2020-07-29 16:38:11
Writing application : mkvmerge v6.8.0 ('Theme for Great Cities') 64bit built on Mar 2 2014 21:34:26
Writing library : libebml v1.3.0 + libmatroska v1.4.1
Attachments : 4c7b00f89273.jpg
Video
ID : 1
Format : AVC
Format/Info : Advanced Video Codec
Format profile : [email protected]
Format settings, CABAC : Yes
Format settings, ReFrames : 10 frames
Codec ID : V_MPEG4/ISO/AVC
Duration : 1 h 35 min
Bit rate : 1 314 kb/s
Width : 1 024 pixels
Height : 428 pixels
Display aspect ratio : 2.40:1
Frame rate mode : Constant
Frame rate : 23.976 (24000/1001) FPS
Color space : YUV
Chroma subsampling : 4:2:0
Bit depth : 8 bits
Scan type : Progressive
Bits/(Pixel*Frame) : 0.125
Stream size : 873 MiB (75%)
Writing library : x264 core 148 r2638 7599210
Encoding settings : cabac=1 / ref=10 / deblock=1:-2:-1 / analyse=0x3:0x113 / me=umh / subme=11 / psy=1 / psy_rd=0.00:0.15 / mixed_ref=1 / me_range=32 / chroma_me=1 / trellis=2 / 8x8dct=1 / cqm=0 / deadzone=21,11 / fast_pskip=0 / chroma_qp_offset=-3 / threads=6 / lookahead_threads=1 / sliced_threads=0 / nr=0 / decimate=0 / interlaced=0 / bluray_compat=0 / constrained_intra=0 / bframes=10 / b_pyramid=2 / b_adapt=2 / b_bias=0 / direct=1 / weightb=1 / open_gop=0 / weightp=2 / keyint=240 / keyint_min=23 / scenecut=40 / intra_refresh=0 / rc_lookahead=40 / rc=2pass / mbtree=0 / bitrate=1314 / ratetol=1.0 / qcomp=0.65 / qpmin=0 / qpmax=69 / qpstep=4 / cplxblur=20.0 / qblur=0.5 / vbv_maxrate=50000 / vbv_bufsize=65500 / nal_hrd=none / filler=0 / ip_ratio=1.40 / pb_ratio=1.30 / aq=1:2.00
Language : English
Default : Yes
Forced : No
Audio
ID : 2
Format : AC-3
Format/Info : Audio Coding 3
Mode extension : CM (complete main)
Format settings, Endianness : Big
Codec ID : A_AC3
Duration : 1 h 35 min
Bit rate mode : Constant
Bit rate : 384 kb/s
Channel(s) : 6 channels
Channel positions : Front: L C R, Side: L R, LFE
Sampling rate : 48.0 kHz
Frame rate : 31.250 FPS (1536 spf)
Compression mode : Lossy
Stream size : 262 MiB (23%)
Title : iTunes
Language : Russian
Default : Yes
Forced : No
Menu
00:00:00.000 : en:Глава 01
00:07:38.333 : en:Глава 02
00:15:57.498 : en:Глава 03
00:21:35.794 : en:Глава 04
00:29:09.748 : en:Глава 05
00:36:35.235 : en:Глава 06
00:45:46.410 : en:Глава 07
00:55:39.545 : en:Глава 08
01:03:59.586 : en:Глава 09
01:10:50.079 : en:Глава 10
01:18:37.004 : en:Глава 11
01:29:34.703 : en:Глава 12
-
[korsars.info].t31890.torrent 
Торрент: Зарегистрирован [ 2020-09-13 13:00 ] · 1C8C29F35E3B7C5013E0697F6DE28584FCDFD8F9

Скачать .torrent

Размер .torrent файла 12 KB

Статус: проверено
.torrent скачан: 4 раз
Размер: 1,13 GB
Правила

[Профиль] [ЛС]
Показать сообщения:    
Ответить на тему

Текущее время: 23-Сен 05:55

Часовой пояс: UTC + 4



Вы не можете начинать темы
Вы не можете отвечать на сообщения
Вы не можете редактировать свои сообщения
Вы не можете удалять свои сообщения
Вы не можете голосовать в опросах
Вы не можете прикреплять файлы к сообщениям
Вы можете скачивать файлы
Анализ сайта korsars.info Яндекс.Метрика