Магия зверя / Seules les bêtes / Only the Animals (2019) BDRip 720p | L

Ответить на тему
Статистика раздачи [Обновить пиров]
Размер:  5,84 GB   |    Зарегистрирован:  9 дней   |    .torrent скачан:  18 раз
Раздают:  59  [  0 KB/s  ]   Качают:  1  [  0 KB/s  ]   Подробная статистика пиров
 
   
 
 
Автор Сообщение

4udaki ®

Оффлайн

Медали


Пол: Мужской

Стаж: 5 лет 10 месяцев

Наличие запрета:

Сообщений: 7981

Откуда: korsars.info

Отдача: 2 Mb/s

Загрузка: 20 Mb/s

Нажми


Скачать Adguard бесплатно

Создавать темы 13-Сен-2020 21:00

[Цитировать]

Информация о фильме
Название: Магия зверя
Оригинальное название: Seules les bêtes / Only the Animals
Год выхода: 2019
Жанр: Триллер, драма, криминал
Режиссер: Доминик Молль
В ролях: Дени Меноше, Лор Калами, Дамиен Боннар, Надя Терешкевич, Бастьен Буллон, Валерия Бруни-Тедески, Женни Белле, Фред Улисс, Ролан Плантен, Колин Нил
О фильме:
В окрестностях альпийской деревушки во время снежной бури исчезает богатая парижанка Эвелин Дюка. К этому таинственному происшествию неожиданным образом оказываются причастны несколько человек: фермер и его жена, страдающая от неразделенной любви юная официантка, здешний изгой и мошенник-африканец, никогда не покидавший пределы своей родины и заключивший пугающий союз с духами зла…

Страна: Франция, Германия
Студия: Canal+ [fr], Centre National de la Cinématographie (CNC), Ciné, Eurimages, Filmförderungsanstalt (FFA), France 3 Cinéma, France Télévisions, Haut et Court, The Match Factory, Medienboard Berlin-Brandenburg
Продолжительность: 01:57:07
Перевод: Любительский многоголосый | Pazl Voice
Файл
Кодек: x.264
Качество: BDRip 720p | Seules.Les.Betes.2019.FRENCH.720p.BluRay.DTS.x264-UTT
Видео: MPEG-4 AVC, 5179 Kбит/с, 1280x536, 24.000 кадр/с
Аудио #1: Русский (АС3, 6 ch, 448 Кбит/с, 48.0 KHz) Любительский (многоголосый, закадровый) Pazl Voice
Аудио #2: Французский (DTS, 6 ch, 1509 Кбит/с, 48.0 KHz)
Субтитры: английские, французские
► Без Рекламы!

MediaInfo

Источник: Seules.Les.Betes.2019.FRENCH.720p.BluRay.DTS.x264-UTT
General
Unique ID : 217826066548291860699740055067703467411 (0xA3DFC6409BB8A1CA9BE03322D33D5D93)
Complete name : Seules.Les.Betes.2019.BDRip.720p.mkv
Format : Matroska
Format version : Version 4
File size : 5.84 GiB
Duration : 1 h 57 min
Overall bit rate : 7 138 kb/s
Encoded date : UTC 2020-08-14 07:19:53
Writing application : mkvmerge v7.1.0 ('Good Love') 64bit built on Jul 27 2014 13:06:55
Writing library : libebml v1.3.0 + libmatroska v1.4.1
Video
ID : 1
Format : AVC
Format/Info : Advanced Video Codec
Format profile : [email protected]
Format settings : CABAC / 5 Ref Frames
Format settings, CABAC : Yes
Format settings, Reference fra : 5 frames
Codec ID : V_MPEG4/ISO/AVC
Duration : 1 h 57 min
Bit rate : 5 179 kb/s
Width : 1 280 pixels
Height : 536 pixels
Display aspect ratio : 2.40:1
Frame rate mode : Constant
Frame rate : 24.000 FPS
Color space : YUV
Chroma subsampling : 4:2:0
Bit depth : 8 bits
Scan type : Progressive
Bits/(Pixel*Frame) : 0.315
Stream size : 4.24 GiB (73%)
Writing library : x264 core 152 r2851 ba24899
Encoding settings : cabac=1 / ref=5 / deblock=1:-3:-3 / analyse=0x3:0x113 / me=umh / subme=10 / psy=1 / psy_rd=1.00:0.00 / mixed_ref=1 / me_range=24 / chroma_me=1 / trellis=2 / 8x8dct=1 / cqm=0 / deadzone=21,11 / fast_pskip=1 / chroma_qp_offset=-2 / threads=17 / lookahead_threads=4 / sliced_threads=0 / nr=0 / decimate=1 / interlaced=0 / bluray_compat=0 / constrained_intra=0 / bframes=8 / b_pyramid=2 / b_adapt=2 / b_bias=0 / direct=3 / weightb=1 / open_gop=0 / weightp=2 / keyint=230 / keyint_min=23 / scenecut=40 / intra_refresh=0 / rc_lookahead=60 / rc=2pass / mbtree=1 / bitrate=5179 / ratetol=1.0 / qcomp=0.60 / qpmin=0 / qpmax=69 / qpstep=4 / cplxblur=20.0 / qblur=0.5 / vbv_maxrate=62500 / vbv_bufsize=78125 / nal_hrd=none / filler=0 / ip_ratio=1.40 / aq=1:1.00
Language : French
Default : Yes
Forced : No
Audio #1
ID : 2
Format : AC-3
Format/Info : Audio Coding 3
Commercial name : Dolby Digital
Codec ID : A_AC3
Duration : 1 h 57 min
Bit rate mode : Constant
Bit rate : 448 kb/s
Channel(s) : 6 channels
Channel layout : L R C LFE Ls Rs
Sampling rate : 48.0 kHz
Frame rate : 31.250 FPS (1536 SPF)
Compression mode : Lossy
Stream size : 375 MiB (6%)
Title : Pazl Voice
Language : Russian
Service kind : Complete Main
Default : Yes
Forced : No
Audio #2
ID : 3
Format : DTS
Format/Info : Digital Theater Systems
Codec ID : A_DTS
Duration : 1 h 57 min
Bit rate mode : Constant
Bit rate : 1 509 kb/s
Channel(s) : 6 channels
Channel layout : C L R Ls Rs LFE
Sampling rate : 48.0 kHz
Frame rate : 93.750 FPS (512 SPF)
Bit depth : 24 bits
Compression mode : Lossy
Stream size : 1.23 GiB (21%)
Language : French
Default : No
Forced : No
Text #1
ID : 4
Format : UTF-8
Codec ID : S_TEXT/UTF8
Codec ID/Info : UTF-8 Plain Text
Duration : 1 h 50 min
Bit rate : 29 b/s
Count of elements : 909
Stream size : 23.6 KiB (0%)
Title : Full
Language : English
Default : No
Forced : No
Text #2
ID : 5
Format : UTF-8
Codec ID : S_TEXT/UTF8
Codec ID/Info : UTF-8 Plain Text
Duration : 1 h 57 min
Bit rate : 31 b/s
Count of elements : 1057
Stream size : 27.0 KiB (0%)
Title : SDH
Language : French
Default : No
Forced : No
Menu
00:00:00.000 : en:00:00:00.000
00:02:12.042 : en:00:02:12.042
00:05:20.500 : en:00:05:20.500
00:12:28.125 : en:00:12:28.125
00:18:19.000 : en:00:18:19.000
00:23:30.625 : en:00:23:30.625
00:29:51.208 : en:00:29:51.208
00:37:13.208 : en:00:37:13.208
00:41:31.500 : en:00:41:31.500
00:48:15.875 : en:00:48:15.875
00:56:38.417 : en:00:56:38.417
01:01:28.500 : en:01:01:28.500
01:12:06.750 : en:01:12:06.750
01:22:48.833 : en:01:22:48.833
01:31:21.625 : en:01:31:21.625
01:40:23.542 : en:01:40:23.542
01:46:55.292 : en:01:46:55.292
-
[korsars.info].t31894.torrent 
Торрент: Зарегистрирован [ 2020-09-13 21:00 ] · 522546E1393BB3E99219666D6588C0F7FF295FD8

Скачать .torrent

Размер .torrent файла 16 KB

Статус: проверено
.torrent скачан: 18 раз
Размер: 5,84 GB
Правила
Похожие темы

[Профиль] [ЛС]
Показать сообщения:    
Ответить на тему

Текущее время: 23-Сен 06:21

Часовой пояс: UTC + 4



Вы не можете начинать темы
Вы не можете отвечать на сообщения
Вы не можете редактировать свои сообщения
Вы не можете удалять свои сообщения
Вы не можете голосовать в опросах
Вы не можете прикреплять файлы к сообщениям
Вы можете скачивать файлы
Анализ сайта korsars.info Яндекс.Метрика