Птицелов / The Birdcatcher (2019) BDRip-AVC | iTunes

Ответить на тему
Статистика раздачи [Обновить пиров]
Размер:  2,18 GB   |    Зарегистрирован:  6 дней   |    .torrent скачан:  0 раз
Раздают:  18  [  0 KB/s  ]   Качают:  1  [  0 KB/s  ]   Подробная статистика пиров
 
   
 
 
Автор Сообщение

4udaki ®

Оффлайн

Медали


Пол: Мужской

Стаж: 5 лет 10 месяцев

Наличие запрета:

Сообщений: 7938

Откуда: korsars.info

Отдача: 2 Mb/s

Загрузка: 20 Mb/s

Нажми


Скачать Adguard бесплатно

Создавать темы 14-Сен-2020 01:00

[Цитировать]

Информация о фильме
Название: Птицелов
Оригинальное название: The Birdcatcher
Год выпуска: 2019
Жанр: Триллер, драма, военный, история
Режиссер: Росс Кларк
В ролях: Аугуст Диль, Сара-Софи Бусснина, Якоб Седергрен, Лаура Бирн, Йоханнес Кунке, Андерс Босмо Кристиансен, Йонас Хофф Офтебро, Артур Хакалахти, Кристофер Дэйн, Тибо Ванденборре
О фильме:
После оккупации Норвегии немцами Эстер потеряла родителей и была вынуждена бежать в леса, чтобы не оказаться в концентрационном лагере. Волею судьбы она оказывается на отдалённой ферме, где ей приходится изображать мальчика, скрывая свою личность от владельца-нациста.

Страна: Норвегия, Великобритания
Студия: Garnet Girl, Motion Picture Capital
Продолжительность: 01:40:20
Перевод: Профессиональный (многоголосый, закадровый) | iTunes
Субтитры: Английские (Full)
Файл
Формат: Matroska
Качество: BDRip-AVC [The.Birdcatcher.BDRemux.1080p.pk]
Видео: 1132x474 at 23.976 fps, [email protected], ~2727 kbps, 0.212 bpp
Аудио: AC3, 6 ch, ~384 kbps - | Русский | -
Формат субтитров: softsub (SRT)
***Релиз от: -=DoMiNo=-

M/I

x264 info: frame I:1055 Avg QP:15.09 size: 79326
x264 info: frame P:28622 Avg QP:18.01 size: 28439
x264 info: frame B:114661 Avg QP:19.76 size: 10028
x264 info: consecutive B-frames: 1.5% 1.6% 8.0% 13.0% 18.4% 39.1% 7.3% 2.4% 2.4% 1.9% 2.3% 0.5%
General
Format : Matroska
Format version : Version 4
File size : 2.18 GiB
Duration : 1 h 40 min
Overall bit rate : 3 108 kb/s
Writing application : XviD4PSP 8.0.102
ErrorDetectionType : Per level 1
Attachments : poster / poster
Language : und
ORIGINAL_TITLE : The Birdcatcher
Video
ID : 1
Format : AVC
Format/Info : Advanced Video Codec
Format profile : [email protected]
Format settings : CABAC / 12 Ref Frames
Format settings, CABAC : Yes
Format settings, Reference : 12 frames
Codec ID : V_MPEG4/ISO/AVC
Duration : 1 h 40 min
Bit rate : 2 727 kb/s
Width : 1 132 pixels
Height : 474 pixels
Display aspect ratio : 2.40:1
Frame rate mode : Constant
Frame rate : 23.976 (24000/1001) FPS
Color space : YUV
Chroma subsampling : 4:2:0
Bit depth : 8 bits
Scan type : Progressive
Bits/(Pixel*Frame) : 0.212
Stream size : 1.87 GiB (86%)
Title : Птицелов.(2019).BDRip-AVC.[-=DoMiNo=-]
Writing library : x264 core 159 r2991 1771b55
Encoding settings : cabac=1 / ref=12 / deblock=1:-3:-3 / analyse=0x3:0x133 / me=umh / subme=10 / psy=1 / psy_rd=1.00:0.15 / mixed_ref=1 / me_range=32 / chroma_me=1 / trellis=2 / 8x8dct=1 / cqm=0 / deadzone=21,11 / fast_pskip=0 / chroma_qp_offset=-3 / threads=6 / lookahead_threads=1 / sliced_threads=0 / nr=0 / decimate=0 / interlaced=0 / bluray_compat=0 / constrained_intra=0 / bframes=11 / b_pyramid=2 / b_adapt=2 / b_bias=0 / direct=3 / weightb=1 / open_gop=0 / weightp=2 / keyint=240 / keyint_min=24 / scenecut=40 / intra_refresh=0 / rc_lookahead=80 / rc=2pass / mbtree=0 / bitrate=2727 / ratetol=1.0 / qcomp=0.65 / qpmin=0 / qpmax=69 / qpstep=4 / cplxblur=20.0 / qblur=0.5 / vbv_maxrate=50000 / vbv_bufsize=62500 / nal_hrd=none / filler=0 / ip_ratio=1.40 / pb_ratio=1.30 / aq=1:1.00
Language : English
Default : Yes
Forced : No
Color range : Full
Color primaries : BT.709
Transfer characteristics : BT.709
Matrix coefficients : BT.709
Audio
ID : 2
Format : AC-3
Format/Info : Audio Coding 3
Commercial name : Dolby Digital
Codec ID : A_AC3
Duration : 1 h 40 min
Bit rate mode : Constant
Bit rate : 384 kb/s
Channel(s) : 6 channels
Channel layout : L R C LFE Ls Rs
Sampling rate : 48.0 kHz
Frame rate : 31.250 FPS (1536 SPF)
Bit depth : 32 bits
Compression mode : Lossy
Stream size : 275 MiB (12%)
Title : Russian MVO iTunes
Language : Russian
Service kind : Complete Main
Default : Yes
Forced : No
Text
ID : 3
Format : UTF-8
Codec ID : S_TEXT/UTF8
Codec ID/Info : UTF-8 Plain Text
Duration : 1 h 33 min
Title : English full
Language : English
Default : Yes
Forced : No
Menu
00:00:00.000 : :Chapter 1
00:09:50.339 : :Chapter 2
00:20:34.775 : :Chapter 3
00:29:48.620 : :Chapter 4
00:40:04.318 : :Chapter 5
00:50:30.819 : :Chapter 6
00:59:31.818 : :Chapter 7
01:10:40.361 : :Chapter 8
01:20:07.010 : :Chapter 9
01:30:13.199 : :Chapter 10
01:34:10.519 : :End Credits
-
[korsars.info].t31898.torrent 
Торрент: Зарегистрирован [ 2020-09-14 01:00 ] · 36171D3FD7830229469892C17551EEFFA8B92B8C

Скачать .torrent

Размер .torrent файла 89 KB

Статус: проверено
.torrent скачан: 0 раз
Размер: 2,18 GB
Правила
Похожие темы

[Профиль] [ЛС]
Показать сообщения:    
Ответить на тему

Текущее время: 20-Сен 04:57

Часовой пояс: UTC + 4



Вы не можете начинать темы
Вы не можете отвечать на сообщения
Вы не можете редактировать свои сообщения
Вы не можете удалять свои сообщения
Вы не можете голосовать в опросах
Вы не можете прикреплять файлы к сообщениям
Вы можете скачивать файлы
Анализ сайта korsars.info Яндекс.Метрика