Зов джунглей / Jungle Beat: The Movie (2020) WEB-DL 1080p от ELEKTRI4KA | iTunes

Ответить на тему
Статистика раздачи [Обновить пиров]
Размер:  2,97 GB   |    Зарегистрирован:  9 дней   |    .torrent скачан:  1 раз
Раздают:  84  [  0 KB/s  ]   Качают:  4  [  0 KB/s  ]   Подробная статистика пиров
 
   
 
 
Автор Сообщение

4udaki ®

Оффлайн

Медали


Пол: Мужской

Стаж: 5 лет 10 месяцев

Наличие запрета:

Сообщений: 7960

Откуда: korsars.info

Отдача: 2 Mb/s

Загрузка: 20 Mb/s

Нажми


Скачать Adguard бесплатно

Создавать темы 14-Сен-2020 01:00

[Цитировать]

Информация
Название: Зов джунглей
Оригинальное название: Jungle Beat: The Movie
Год выхода: 2020
Жанр: мультфильм, детский, семейный, приключения, полнометражный
Режиссер: Брент Доуз
В ролях: Эд Кейр, Дэвид Менкин, Дэвид Ринтул, Гэвин Питер, Флорри Уилкинсон, Адам Нилл, Джейсон Пенникук, Роберт Дж. Слэйд, Эмма де Вет, Клер Джонстон
Описание: Пришелец Флип попадает на Землю. Очутившись в настоящих джунглях он знакомится с компаний диких зверей. Вместе с обезьянкой Манки и слонихой Труди им предстоит отправиться в большое путешествие, найти новых друзей и, главное, вернуть Флипа домой. Но у могучего предводителя пришельцев Граноса свои планы.

Выпущено: Маврикий / Sandcastle Studios, Sunrise Productions
Продолжительность: 01:27:44
Озвучивание: Дублированное | iTunes
Файл
Формат: MKV
Качество: WEB-DL 1080p
Видео: MPEG-4 AVC, 4466 Kb/s, 1920x806
Аудио: Russian: 48 kHz, AC3 Dolby Digital, 3/2 (L, C, R, l, r) + LFE ch, ~384 kbps
Субтитры: Нет
Дополнительно: Сохранены оригинальные чаптеры.
Релиз группы: &

MediaInfo:

Complete name: Zov.dzhungley.2020.WEB-DL.1080p.ELEKTRI4KA.UNIONGANG.mkv
Format: Matroska
Format version: Version 4 / Version 2
File size: 2.97 GiB
Duration: 1 h 27 min
Overall bit rate: 4 851 kb/s
Movie name: .ELEKTRI4KA.UNIONGANG.
Encoded date: UTC 2020-07-13 10:56:45
Writing application: mkvmerge v8.3.0 ('Over the Horizon') 64bit
Writing library: libebml v1.3.1 + libmatroska v1.4.2
Video
ID: 1
Format: AVC
Format/Info: Advanced Video Codec
Format profile: [email protected]
Format settings, CABAC: Yes
Format settings, Reference frames: 5 frames
Codec ID: V_MPEG4/ISO/AVC
Duration: 1 h 27 min
Bit rate: 4 466 kb/s
Width: 1 920 pixels
Height: 806 pixels
Display aspect ratio: 2.40:1
Frame rate mode: Constant
Frame rate: 24.000 FPS
Color space: YUV
Chroma subsampling: 4:2:0
Bit depth: 8 bits
Scan type: Progressive
Bits/(Pixel*Frame): 0.120
Stream size: 2.74 GiB (92%)
Title: .ELEKTRI4KA.UNIONGANG.
Language: English
Default: Yes
Forced: No
Color range: Limited
Color primaries: BT.709
Transfer characteristics: BT.709
Matrix coefficients: BT.709
Audio
ID: 2
Format: AC-3
Format/Info: Audio Coding 3
Mode extension: CM (complete main)
Format settings, Endianness: Big
Codec ID: A_AC3
Duration: 1 h 27 min
Bit rate mode: Constant
Bit rate: 384 kb/s
Channel(s): 6 channels
Channel positions: Front: L C R, Side: L R, LFE
Sampling rate: 48.0 kHz
Frame rate: 31.250 FPS (1536 spf)
Bit depth: 16 bits
Compression mode: Lossy
Stream size: 241 MiB (8%)
Title: iTunes
Language: Russian
Default: Yes
Forced: No
Menu
00:00:00.000: en:Глава 1
00:08:04.333: en:Глава 2
00:16:50.458: en:Глава 3
00:25:25.583: en:Глава 4
00:33:55.624: en:Глава 5
00:42:33.499: en:Глава 6
00:50:43.582: en:Глава 7
00:59:37.165: en:Глава 8
01:08:06.040: en:Глава 9
01:16:35.040: en:Глава 10
-
[korsars.info].t31899.torrent 
Торрент: Зарегистрирован [ 2020-09-14 01:00 ] · 7EAA1147275B596FE1F5C8C73DB40B2D18F53853

Скачать .torrent

Размер .torrent файла 8 KB

Статус: проверено
.torrent скачан: 1 раз
Размер: 2,97 GB
Правила
Похожие темы

[Профиль] [ЛС]
Показать сообщения:    
Ответить на тему

Текущее время: 23-Сен 05:52

Часовой пояс: UTC + 4



Вы не можете начинать темы
Вы не можете отвечать на сообщения
Вы не можете редактировать свои сообщения
Вы не можете удалять свои сообщения
Вы не можете голосовать в опросах
Вы не можете прикреплять файлы к сообщениям
Вы можете скачивать файлы
Анализ сайта korsars.info Яндекс.Метрика