Охота / The Hunt (2020) BDRip-HEVC 1080p | D, Р | iTunes

Ответить на тему
Статистика раздачи [Обновить пиров]
Размер:  3,61 GB   |    Зарегистрирован:  8 дней   |    .torrent скачан:  3 раза
Раздают:  107  [  0 KB/s  ]   Качают:  10  [  0 KB/s  ]   Подробная статистика пиров
 
   
 
 
Автор Сообщение

4udaki ®

Оффлайн

Медали


Пол: Мужской

Стаж: 5 лет 10 месяцев

Наличие запрета:

Сообщений: 7981

Откуда: korsars.info

Отдача: 2 Mb/s

Загрузка: 20 Mb/s

Нажми


Скачать Adguard бесплатно

Создавать темы 15-Сен-2020 01:00

[Цитировать]

Год выхода: 2020
Страна / Студия: США / Blumhouse Productions, Dentsu
Жанр: Боевик, комедия, триллер
Продолжительность: 01:30:02
Перевод: Дублированный, профессиональный (многоголосый, закадровый)
Режиссер: Крэйг Зобел
В ролях: Бетти Гилпин, Эмма Робертс, Итэн Сапли, Хилари Суэнк, Джастин Хартли, Дж.С. МакКензи, Айк Баринхолц, Гленн Хоуертон, Эми Мэдиган, Мэйкон Блэр
Описание: Несколько человек имели неосторожность обсуждать в групповом чате охоту на людей. Некоторое время спустя та же компания летит на частном самолёте, когда к ним в салон вваливается ничего непонимающий грязный мужчина, и встречает свою смерть - пассажиры жестоко его убивают. Ещё через какое-то время несколько человек приходят в себя на лесной поляне: во рту у них кляпы, рядом обнаруживается ящик со всевозможными оружием, а сами они стали мишенями в охоте на людей.
Качество: BDRip 1080p
Видео: HEVC/H.265, 1920x804, ~4266 Kbps
Аудио 1: AC3, 6 ch, 384 Kbps - Русский, дублированный (iTunes)
Аудио 2: AC3, 6 ch, 448 Kbps - Русский, MVO (HDrezka Studio) - ненормативная лексика 18+
Аудио 3: AC3, 6 ch, 640 Kbps - Английский
Субтитры: Русские (форсированные, полные), английские (полные, SDH)

Релиз от: mikos

Mediainfo

Общее
Уникальный идентификатор : 32183607240895910347064291802448373743 (0x18365658A94A560619C684621F33A7EF)
Полное имя : R:The Hunt.2020.BDRip.1080p.DUB.MVO.HEVC.10bit.mikos.mkv
Формат : Matroska
Версия формата : Version 4 / Version 2
Размер файла : 3,61 Гбайт
Продолжительность : 1 ч. 30 м.
Общий поток : 5741 Кбит/сек
Название фильма : The Hunt.2020.BDRip.1080p.DUB.MVO.HEVC.10bit.mikos
Дата кодирования : UTC 2020-09-06 05:14:30
Программа кодирования : mkvmerge v47.0.0 ('Black Flag') 64-bit
Библиотека кодирования : libebml v1.3.10 + libmatroska v1.5.2
Видео
Идентификатор : 1
Формат : HEVC
Формат/Информация : High Efficiency Video Coding
Профиль формата : Main [email protected]@High
Идентификатор кодека : V_MPEGH/ISO/HEVC
Продолжительность : 1 ч. 30 м.
Битрейт : 4266 Кбит/сек
Ширина : 1920 пикселей
Высота : 804 пикселя
Соотношение сторон : 2,40:1
Режим частоты кадров : Постоянный
Частота кадров : 23,976 (24000/1001) кадра/сек
Цветовое пространство : YUV
Субдискретизация насыщенности : 4:2:0
Битовая глубина : 10 бит
Бит/(Пиксели*Кадры) : 0.115
Размер потока : 2,68 Гбайт (74%)
Заголовок : Рип от mikos
Библиотека кодирования : x265 3.4+20-g343c58ef6:[Windows][clang 10.0.1][64 bit] 10bit
Настройки программы : cpuid=1111039 / frame-threads=3 / numa-pools=12 / wpp / no-pmode / no-pme / no-psnr / no-ssim / log-level=3 / input-csp=1 / input-res=1920x804 / interlace=0 / total-frames=0 / level-idc=41 / high-tier=1 / uhd-bd=0 / ref=5 / allow-non-conformance / no-repeat-headers / annexb / no-aud / no-hrd / info / hash=0 / no-temporal-layers / open-gop / min-keyint=23 / keyint=240 / gop-lookahead=0 / bframes=14 / b-adapt=2 / b-pyramid / bframe-bias=0 / rc-lookahead=60 / lookahead-slices=5 / scenecut=40 / hist-scenecut=0 / radl=0 / no-splice / no-intra-refresh / ctu=32 / min-cu-size=8 / no-rect / no-amp / max-tu-size=32 / tu-inter-depth=1 / tu-intra-depth=1 / limit-tu=0 / rdoq-level=0 / dynamic-rd=0.00 / no-ssim-rd / signhide / no-tskip / nr-intra=0 / nr-inter=0 / no-constrained-intra / strong-intra-smoothing / max-merge=3 / limit-refs=1 / no-limit-modes / me=2 / subme=7 / merange=57 / temporal-mvp / no-frame-dup / no-hme / weightp / no-weightb / no-analyze-src-pics / deblock=-3:-2 / no-sao / no-sao-non-deblock / rd=3 / selective-sao=0 / early-skip / rskip / no-fast-intra / no-tskip-fast / no-cu-lossless / b-intra / no-splitrd-skip / rdpenalty=0 / psy-rd=2.00 / psy-rdoq=0.00 / no-rd-refine / no-lossless / cbqpoffs=0 / crqpoffs=0 / rc=crf / crf=17.0 / qcomp=0.65 / qpstep=4 / stats-write=0 / stats-read=0 / vbv-maxrate=50000 / vbv-bufsize=50000 / vbv-init=0.9 / crf-max=27.0 / crf-min=0.0 / ipratio=1.40 / pbratio=1.30 / aq-mode=2 / aq-strength=1.00 / no-cutree / zone-count=0 / no-strict-cbr / qg-size=32 / no-rc-grain / qpmax=69 / qpmin=0 / no-const-vbv / sar=1 / overscan=0 / videoformat=5 / range=0 / colorprim=2 / transfer=2 / colormatrix=2 / chromaloc=0 / display-window=0 / cll=0,0 / min-luma=0 / max-luma=1023 / log2-max-poc-lsb=8 / vui-timing-info / vui-hrd-info / slices=1 / no-opt-qp-pps / no-opt-ref-list-length-pps / no-multi-pass-opt-rps / scenecut-bias=0.05 / hist-threshold=0.03 / no-opt-cu-delta-qp / no-aq-motion / no-hdr10 / no-hdr10-opt / no-dhdr10-opt / no-idr-recovery-sei / analysis-reuse-level=0 / analysis-save-reuse-level=0 / analysis-load-reuse-level=0 / scale-factor=0 / refine-intra=0 / refine-inter=0 / refine-mv=1 / refine-ctu-distortion=0 / no-limit-sao / ctu-info=0 / no-lowpass-dct / refine-analysis-type=0 / copy-pic=1 / max-ausize-factor=1.0 / no-dynamic-refine / no-single-sei / no-hevc-aq / no-svt / no-field / qp-adaptation-range=1.00 / no-scenecut-aware-qpconformance-window-offsets / right=0 / bottom=0 / decoder-max-rate=0
Язык : English
Default : Да
Forced : Нет
Цветовой диапазон : Limited
Аудио #1
Идентификатор : 2
Формат : AC-3
Формат/Информация : Audio Coding 3
Идентификатор кодека : A_AC3
Продолжительность : 1 ч. 30 м.
Вид битрейта : Постоянный
Битрейт : 384 Кбит/сек
Каналы : 6 каналов
Расположение каналов : Front: L C R, Side: L R, LFE
Частота : 48,0 КГц
Частота кадров : 31,250 кадров/сек (1536 SPF)
Битовая глубина : 16 бит
Метод сжатия : С потерями
Размер потока : 247 Мбайт (7%)
Заголовок : DUB (iTunes)
Язык : Russian
ServiceKind/Strin : Complete Main
Default : Да
Forced : Нет
Аудио #2
Идентификатор : 3
Формат : AC-3
Формат/Информация : Audio Coding 3
Идентификатор кодека : A_AC3
Продолжительность : 1 ч. 30 м.
Вид битрейта : Постоянный
Битрейт : 448 Кбит/сек
Каналы : 6 каналов
Расположение каналов : Front: L C R, Side: L R, LFE
Частота : 48,0 КГц
Частота кадров : 31,250 кадров/сек (1536 SPF)
Битовая глубина : 16 бит
Метод сжатия : С потерями
Размер потока : 288 Мбайт (8%)
Заголовок : MVO | HDrezka Studio
Язык : Russian
ServiceKind/Strin : Complete Main
Default : Нет
Forced : Нет
Аудио #3
Идентификатор : 4
Формат : AC-3
Формат/Информация : Audio Coding 3
Идентификатор кодека : A_AC3
Продолжительность : 1 ч. 30 м.
Вид битрейта : Постоянный
Битрейт : 640 Кбит/сек
Каналы : 6 каналов
Расположение каналов : Front: L C R, Side: L R, LFE
Частота : 48,0 КГц
Частота кадров : 31,250 кадров/сек (1536 SPF)
Битовая глубина : 16 бит
Метод сжатия : С потерями
Размер потока : 412 Мбайт (11%)
Язык : English
ServiceKind/Strin : Complete Main
Default : Нет
Forced : Нет
Текст #1
Идентификатор : 5
Формат : UTF-8
Идентификатор кодека : S_TEXT/UTF8
Идентификатор кодека/Информация : UTF-8 Plain Text
Продолжительность : 1 м. 0 с.
Битрейт : 193 бит/сек
ElementCount : 18
Размер потока : 1,43 Кбайт (0%)
Заголовок : Forced
Язык : Russian
Default : Да
Forced : Нет
Текст #2
Идентификатор : 6
Формат : UTF-8
Идентификатор кодека : S_TEXT/UTF8
Идентификатор кодека/Информация : UTF-8 Plain Text
Продолжительность : 1 ч. 24 м.
Битрейт : 90 бит/сек
ElementCount : 1239
Размер потока : 55,4 Кбайт (0%)
Заголовок : Full
Язык : Russian
Default : Нет
Forced : Нет
Текст #3
Идентификатор : 7
Формат : UTF-8
Идентификатор кодека : S_TEXT/UTF8
Идентификатор кодека/Информация : UTF-8 Plain Text
Продолжительность : 1 ч. 22 м.
Битрейт : 57 бит/сек
ElementCount : 1278
Размер потока : 34,9 Кбайт (0%)
Язык : English
Default : Нет
Forced : Нет
Текст #4
Идентификатор : 8
Формат : UTF-8
Идентификатор кодека : S_TEXT/UTF8
Идентификатор кодека/Информация : UTF-8 Plain Text
Продолжительность : 1 ч. 29 м.
Битрейт : 62 бит/сек
ElementCount : 1572
Размер потока : 40,9 Кбайт (0%)
Заголовок : SDH
Язык : English
Default : Нет
Forced : Нет
Меню
00:00:00.000 : :Chapter 1
00:02:13.299 : :Chapter 2
00:06:57.083 : :Chapter 3
00:10:44.644 : :Chapter 4
00:15:34.725 : :Chapter 5
00:18:05.667 : :Chapter 6
00:22:32.267 : :Chapter 7
00:25:22.229 : :Chapter 8
00:31:54.579 : :Chapter 9
00:38:49.869 : :Chapter 10
00:43:11.880 : :Chapter 11
00:49:48.443 : :Chapter 12
00:52:26.184 : :Chapter 13
00:56:58.081 : :Chapter 14
01:00:44.432 : :Chapter 15
01:05:08.654 : :Chapter 16
01:08:11.337 : :Chapter 17
01:14:47.816 : :Chapter 18
01:22:04.836 : :Chapter 19
01:24:55.048 : :Chapter 20
-
[korsars.info].t31915.torrent 
Торрент: Зарегистрирован [ 2020-09-15 01:00 ] · 3A75925C705FEB73BE35BD611E7A202967A1C575

Скачать .torrent

Размер .torrent файла 19 KB

Статус: проверено
.torrent скачан: 3 раз
Размер: 3,61 GB
Правила
Похожие темы

[Профиль] [ЛС]
Показать сообщения:    
Ответить на тему

Текущее время: 23-Сен 07:53

Часовой пояс: UTC + 4



Вы не можете начинать темы
Вы не можете отвечать на сообщения
Вы не можете редактировать свои сообщения
Вы не можете удалять свои сообщения
Вы не можете голосовать в опросах
Вы не можете прикреплять файлы к сообщениям
Вы можете скачивать файлы
Анализ сайта korsars.info Яндекс.Метрика