Вечеринка мёртвых / Corpse Party [OVA] [01-05 из 05] (2012-2013) BDRip от Deadmauvlad | Без Цензуры | AniFilm

Ответить на тему
Статистика раздачи [Обновить пиров]
Размер:  1,88 GB   |    Зарегистрирован:  3 дня   |    .torrent скачан:  3 раза
Раздают:  20  [  0 KB/s  ]   Качают:  1  [  0 KB/s  ]   Подробная статистика пиров
 
   
 
 
Автор Сообщение

4udaki ®

Оффлайн

Медали


Пол: Мужской

Стаж: 5 лет 10 месяцев

Наличие запрета:

Сообщений: 7938

Откуда: korsars.info

Отдача: 2 Mb/s

Загрузка: 20 Mb/s

Нажми


Скачать Adguard бесплатно

Создавать темы 16-Сен-2020 13:45

[Цитировать]


Информация о фильме
Название: Вечеринка мёртвых
Оригинальное название: Corpse Party
Год выпуска: 2012-2013
Жанр: сэйнэн, трагедия, триллер, ужасы
Режиссер: Иванага Акира
Автор оригинала: Кэдоин Макото
В ролях: Хиро Симоно, Рина Сато, Асами Имаи, Хироми Игараси, Икуэ Отани, Юити Накамура, Тэцуя Какихара, Миюки Савасиро, Эри Китамура, Аяно Ямамото
О фильме:
Начальная школа Тензин была закрыта много лет назад после череды загадочных исчезновений и жестоких убийств. На месте этой школы была построена Академия Кисараги, в которой учится Сатоши Мочида и его друзья. Оставшись в школе после фестиваля, компания решила провести один ритуал – разорвать бумажную куклу. По слухам, те, кто сделают так, «навсегда останутся вместе». Но, после того как они разорвали куклу, произошло то, чего никто не ожидал. Пол в классе проваливается из-за внезапного землетрясения, и каждый из друзей оказывается в одиночестве в тёмной и полуразрушенной школе. Но это уже не Академия Кисараги, а мрачная и зловещая школа Теншин, по которой до сих пор бродят души убитых…

Страна: Япония
Студия: Asread
Продолжительность: 04 х ~ 00:28:00 + 01 х ~ 00:12:00
Перевод: Любительский (Двухголосый)| DemonOFmooN, MezIdA (AniFilm)
Возрастное ограничение: 18+ [Контент не для детей]
Цензура: Отсутствует

Файл
Формат: AVI
Кодек: XviD
Качество: BDRip
Видео: 720x400 (16:9), 23.976 fps, 1 779 kb/s (0.258 bit/pixel)
Аудио №1: AC3, 48,0 КГц, 2 ch, 192 Кбит/сек, CBR | | AniFilm
Аудио №2: AC3, 48,0 КГц, 2 ch, 192 Кбит/сек, CBR | | Japan (Оригинал)
Субтитры: Русские (полные)

MediaInfo

General
Complete name : [Deadmau- RAWS] Вечеринка.мертвых.Истязаемые души.OVA.RUS.JAP.BDRip.Deadmauvlad.Ep.01.avi
Format : AVI
Format/Info : Audio Video Interleave
File size : 456 MiB
Duration : 29 min 17 s
Overall bit rate : 2 178 kb/s
Movie name : [Deadmau- RAWS] Вечеринка.мертвых.Истязаемые души.OVA.RUS.JAP.BDRip.Deadmauvlad.Ep.01
Director : Encoder by Deadmauvlad
Genre : Ужасы, школа, Гуро
Writing application : VirtualDubMod 1.5.10.3 | www.virtualdub-fr.org || (build 2550/release)
Original source form/Name : Аниме
Copyright : Encoder by Deadmauvlad
Comment : Encoder by Deadmauvlad
Video
ID : 0
Format : MPEG-4 Visual
Format profile : Advanced [email protected]
Format settings : BVOP1 / Custom Matrix
Format settings, BVOP : 1
Format settings, QPel : No
Format settings, GMC : No warppoints
Format settings, Matrix : Custom
Codec ID : XVID
Codec ID/Hint : XviD
Duration : 29 min 17 s
Bit rate : 1 779 kb/s
Width : 720 pixels
Height : 400 pixels
Display aspect ratio : 16:9
Frame rate : 23.976 (24000/1001) FPS
Color space : YUV
Chroma subsampling : 4:2:0
Bit depth : 8 bits
Scan type : Progressive
Compression mode : Lossy
Bits/(Pixel*Frame) : 0.258
Stream size : 373 MiB (82%)
Writing library : XviD 73
Audio #1
ID : 1
Format : AC-3
Format/Info : Audio Coding 3
Commercial name : Dolby Digital
Codec ID : 2000
Duration : 29 min 17 s
Bit rate mode : Constant
Bit rate : 192 kb/s
Channel(s) : 2 channels
Channel layout : L R
Sampling rate : 48.0 kHz
Frame rate : 31.250 FPS (1536 SPF)
Bit depth : 16 bits
Compression mode : Lossy
Stream size : 40.2 MiB (9%)
Alignment : Split accross interleaves
Interleave, duration : 42 ms (1.00 video frame)
Interleave, preload duration : 500 ms
Audio #2
ID : 2
Format : AC-3
Format/Info : Audio Coding 3
Commercial name : Dolby Digital
Codec ID : 2000
Duration : 29 min 17 s
Bit rate mode : Constant
Bit rate : 192 kb/s
Channel(s) : 2 channels
Channel layout : L R
Sampling rate : 48.0 kHz
Frame rate : 31.250 FPS (1536 SPF)
Bit depth : 16 bits
Compression mode : Lossy
Stream size : 40.2 MiB (9%)
Alignment : Split accross interleaves
Interleave, duration : 42 ms (1.00 video frame)
Interleave, preload duration : 500 ms
General
Complete name : [Deadmau- RAWS] Вечеринка.Мертвых.Пропавшая.Запись.OVA.RUS.JAP.BDRip.Без.Цензуры.Deadmauvlad.Ep.01.avi
Format : AVI
Format/Info : Audio Video Interleave
File size : 131 MiB
Duration : 11 min 0 s
Overall bit rate : 1 660 kb/s
Movie name : [Deadmau- RAWS] Вечеринка.Мертвых.Пропавшая.Запись.OVA.RUS.JAP.BDRip.Без.Цензуры.Deadmauvlad.Ep.01
Director : Encoder by Deadmauvlad
Genre : Ужасы, школа, Гуро
Writing application : VirtualDubMod 1.5.10.3 | www.virtualdub-fr.org || (build 2550/release)
Original source form/Name : Аниме
Copyright : Encoder by Deadmauvlad
Comment : Encoder by Deadmauvlad
Video
ID : 0
Format : MPEG-4 Visual
Format profile : Advanced [email protected]
Format settings : BVOP1 / Custom Matrix
Format settings, BVOP : 1
Format settings, QPel : No
Format settings, GMC : No warppoints
Format settings, Matrix : Custom
Codec ID : XVID
Codec ID/Hint : XviD
Duration : 11 min 0 s
Bit rate : 1 262 kb/s
Width : 720 pixels
Height : 400 pixels
Display aspect ratio : 16:9
Frame rate : 25.000 FPS
Color space : YUV
Chroma subsampling : 4:2:0
Bit depth : 8 bits
Scan type : Progressive
Compression mode : Lossy
Bits/(Pixel*Frame) : 0.175
Stream size : 99.3 MiB (76%)
Writing library : XviD 73
Audio #1
ID : 1
Format : AC-3
Format/Info : Audio Coding 3
Commercial name : Dolby Digital
Codec ID : 2000
Duration : 11 min 0 s
Bit rate mode : Constant
Bit rate : 192 kb/s
Channel(s) : 2 channels
Channel layout : L R
Sampling rate : 48.0 kHz
Frame rate : 31.250 FPS (1536 SPF)
Bit depth : 16 bits
Compression mode : Lossy
Stream size : 15.1 MiB (12%)
Alignment : Split accross interleaves
Interleave, duration : 40 ms (1.00 video frame)
Interleave, preload duration : 500 ms
Audio #2
ID : 2
Format : AC-3
Format/Info : Audio Coding 3
Commercial name : Dolby Digital
Codec ID : 2000
Duration : 10 min 59 s
Bit rate mode : Constant
Bit rate : 192 kb/s
Channel(s) : 2 channels
Channel layout : L R
Sampling rate : 48.0 kHz
Frame rate : 31.250 FPS (1536 SPF)
Bit depth : 16 bits
Compression mode : Lossy
Stream size : 15.1 MiB (12%)
Alignment : Split accross interleaves
Interleave, duration : 40 ms (1.00 video frame)
Interleave, preload duration : 500 ms

Отсутствие Цензуры 18+

"Вечеринка Мертвых: Пропавшая Запись" BD DVD имеет цензуру однако нашел одну раздачу в которой нет цензуры и скрестил все без цензурные сцены с BDRip результат теперь все серии без какой либо Цензуры
-На закуску так сказать
BD [Cen] ................... BD Custom

Скриншоты

Исходник: Corpse Party: Missing Footage Blu-Ray 2,58 GB + Corpse Party: Missing Footage Uncensored Ver
Исходник: Corpse Party: Tortured Souls antiBILLotic
Релиз / Автор рипа: Deadmauvlad ^_^
[korsars.info].t31956.torrent 
Торрент: Зарегистрирован [ 2020-09-16 13:45 ] · C57FDF57056EB0FFB8FCA0E792E4FC393E5FABB5

Скачать .torrent

Размер .torrent файла 5 KB

Статус: проверено
.torrent скачан: 3 раз
Размер: 1,88 GB
Правила
ivshafr(Сегодня, в 00:50)
Похожие темы

[Профиль] [ЛС]
Показать сообщения:    
Ответить на тему

Текущее время: 20-Сен 05:44

Часовой пояс: UTC + 4



Вы не можете начинать темы
Вы не можете отвечать на сообщения
Вы не можете редактировать свои сообщения
Вы не можете удалять свои сообщения
Вы не можете голосовать в опросах
Вы не можете прикреплять файлы к сообщениям
Вы можете скачивать файлы
Анализ сайта korsars.info Яндекс.Метрика