Вечеринка мёртвых / Corpse Party [OVA] [01-04 из 04] (2012) BDRip 1080p от Deadmauvlad | Без Цензуры | AniFilm, Persona99

Ответить на тему
Статистика раздачи [Обновить пиров]
Размер:  8,95 GB   |    Зарегистрирован:  2 дня 16 часов   |    .torrent скачан:  2 раза
Раздают:  10  [  0 KB/s  ]   Качают:  2  [  0 KB/s  ]   Подробная статистика пиров
 
   
 
 
Автор Сообщение

4udaki ®

Оффлайн

Медали


Пол: Мужской

Стаж: 5 лет 10 месяцев

Наличие запрета:

Сообщений: 7957

Откуда: korsars.info

Отдача: 2 Mb/s

Загрузка: 20 Mb/s

Нажми


Скачать Adguard бесплатно

Создавать темы 16-Сен-2020 13:59

[Цитировать]


Информация о фильме
Название: Вечеринка мёртвых
Оригинальное название: Corpse Party
Год выпуска: 2012-2013
Жанр: сэйнэн, трагедия, триллер, ужасы
Режиссер: Иванага Акира
Автор оригинала: Кэдоин Макото
В ролях: Хиро Симоно, Рина Сато, Асами Имаи, Хироми Игараси, Икуэ Отани, Юити Накамура, Тэцуя Какихара, Миюки Савасиро, Эри Китамура, Аяно Ямамото
О фильме:
Начальная школа Тензин была закрыта много лет назад после череды загадочных исчезновений и жестоких убийств. На месте этой школы была построена Академия Кисараги, в которой учится Сатоши Мочида и его друзья. Оставшись в школе после фестиваля, компания решила провести один ритуал – разорвать бумажную куклу. По слухам, те, кто сделают так, «навсегда останутся вместе». Но, после того как они разорвали куклу, произошло то, чего никто не ожидал. Пол в классе проваливается из-за внезапного землетрясения, и каждый из друзей оказывается в одиночестве в тёмной и полуразрушенной школе. Но это уже не Академия Кисараги, а мрачная и зловещая школа Теншин, по которой до сих пор бродят души убитых…

Страна: Япония
Студия: Asread
Продолжительность: 04 х ~ 00:28:00 + 01 х ~ 00:12:00
Перевод: Любительский (Двухголосый)| DemonOFmooN, MezIdA (AniFilm)
Перевод: Любительский (Одноголосый)| Persona99
Возрастное ограничение: 18+ [Контент не для детей]
Цензура: Отсутствует

Файл
Формат: MKV
Кодек: AVC
Качество: BDRip 1080p
Видео: 1920x1080 (16:9), 23.976 fps, 9 500 kb/s (0.191 bit/pixel)
Аудио №1: AC3, 48,0 КГц, 2 ch, 192 Кбит/сек, CBR | | AniFilm
Аудио №2: AC3, 48,0 КГц, 2 ch, 192 Кбит/сек, CBR | | Persona99
Аудио №3: FLAC, 48.0 kHz, 2 ch, 1 111 kb/s, VBR | | Japan (Оригинал)
Субтитры: Русские (полные / Надписи), English (Full Sub 2 ver!)

MediaInfo

General
Unique ID : 243861336336317533084861483586143626274 (0xB775FC287DA30AEC53E2DD2428DBA422)
Complete name : [Deadmau- RAWS] Вечеринка.Мертвых.Пропавшая.Запись.OVA.RUS.ENG.JAP.BDRip.1080p.Deadmauvlad.Ep. 03.mkv
Format : Matroska
Format version : Version 4
File size : 2.24 GiB
Duration : 29 min 8 s
Overall bit rate mode : Variable
Overall bit rate : 11.0 Mb/s
Encoded date : UTC 2020-09-15 11:49:17
Writing application : mkvmerge v49.0.0 ('Sick Of Losing Soulmates') 32-bit
Writing library : libebml v1.4.0 + libmatroska v1.6.1
Video
ID : 1
Format : AVC
Format/Info : Advanced Video Codec
Format profile : [email protected]
Format settings : CABAC / 4 Ref Frames
Format settings, CABAC : Yes
Format settings, ReFrames : 4 frames
Codec ID : V_MPEG4/ISO/AVC
Duration : 29 min 8 s
Bit rate : 9 500 kb/s
Width : 1 920 pixels
Height : 1 080 pixels
Display aspect ratio : 16:9
Frame rate mode : Constant
Frame rate : 23.976 (23976/1000) FPS
Original frame rate : 23.976 (24000/1001) FPS
Color space : YUV
Chroma subsampling : 4:2:0
Bit depth : 8 bits
Scan type : Progressive
Bits/(Pixel*Frame) : 0.191
Stream size : 1.93 GiB (86%)
Title : Encoder by Deadmauvlad ^_^
Writing library : x264 core 157 r2969 d4099dd
Encoding settings : cabac=1 / ref=4 / deblock=1:-1:-1 / analyse=0x3:0x113 / me=umh / subme=10 / psy=1 / psy_rd=1.10:0.75 / mixed_ref=0 / me_range=34 / chroma_me=1 / trellis=2 / 8x8dct=1 / cqm=0 / deadzone=21,11 / fast_pskip=1 / chroma_qp_offset=-4 / threads=18 / lookahead_threads=4 / sliced_threads=0 / nr=0 / decimate=1 / interlaced=0 / bluray_compat=0 / constrained_intra=0 / bframes=16 / b_pyramid=2 / b_adapt=2 / b_bias=0 / direct=1 / weightb=1 / open_gop=0 / weightp=2 / keyint=240 / keyint_min=24 / scenecut=40 / intra_refresh=0 / rc_lookahead=60 / rc=2pass / mbtree=1 / bitrate=9500 / ratetol=1.0 / qcomp=0.60 / qpmin=0 / qpmax=69 / qpstep=4 / cplxblur=20.0 / qblur=0.5 / ip_ratio=1.48 / aq=2:2.00
Language : Polish
Default : Yes
Forced : No
Color range : Limited
Color primaries : BT.709
Transfer characteristics : BT.709
Matrix coefficients : BT.709
Audio #1
ID : 2
Format : AC-3
Format/Info : Audio Coding 3
Commercial name : Dolby Digital
Codec ID : A_AC3
Duration : 29 min 8 s
Bit rate mode : Constant
Bit rate : 192 kb/s
Channel(s) : 2 channels
Channel layout : L R
Sampling rate : 48.0 kHz
Frame rate : 31.250 FPS (1536 SPF)
Bit depth : 16 bits
Compression mode : Lossy
Stream size : 40.0 MiB (2%)
Title : DemonOFmooN & MezIdA
Language : Russian
Default : No
Forced : No
Audio #2
ID : 3
Format : AC-3
Format/Info : Audio Coding 3
Commercial name : Dolby Digital
Codec ID : A_AC3
Duration : 29 min 8 s
Bit rate mode : Constant
Bit rate : 192 kb/s
Channel(s) : 2 channels
Channel layout : L R
Sampling rate : 48.0 kHz
Frame rate : 31.250 FPS (1536 SPF)
Bit depth : 16 bits
Compression mode : Lossy
Stream size : 40.0 MiB (2%)
Title : Persona99
Language : Russian
Default : No
Forced : No
Audio #3
ID : 8
Format : FLAC
Format/Info : Free Lossless Audio Codec
Codec ID : A_FLAC
Duration : 29 min 8 s
Bit rate mode : Variable
Bit rate : 1 111 kb/s
Channel(s) : 2 channels
Channel layout : L R
Sampling rate : 48.0 kHz
Frame rate : 11.719 FPS (4096 SPF)
Bit depth : 24 bits
Detected bit depth : 20 bits
Compression mode : Lossless
Stream size : 232 MiB (10%)
Writing library : libFLAC 1.2.1 (UTC 2007-09-17)
Language : Japanese
Default : No
Forced : No
Text #1
ID : 4
Format : ASS
Codec ID : S_TEXT/ASS
Codec ID/Info : Advanced Sub Station Alpha
Duration : 24 min 50 s
Bit rate : 3 b/s
Count of elements : 10
Compression mode : Lossless
Stream size : 607 Bytes (0%)
Title : Forsed
Language : Russian
Default : No
Forced : No
Text #2
ID : 5
Format : ASS
Codec ID : S_TEXT/ASS
Codec ID/Info : Advanced Sub Station Alpha
Duration : 26 min 55 s
Bit rate : 139 b/s
Count of elements : 416
Compression mode : Lossless
Stream size : 27.4 KiB (0%)
Title : Full
Language : Russian
Default : No
Forced : No
Text #3
ID : 6
Format : ASS
Codec ID : S_TEXT/ASS
Codec ID/Info : Advanced Sub Station Alpha
Duration : 28 min 45 s
Bit rate : 145 b/s
Count of elements : 459
Compression mode : Lossless
Stream size : 30.7 KiB (0%)
Title : Ver 01
Language : English
Default : No
Forced : No
Text #4
ID : 7
Format : ASS
Codec ID : S_TEXT/ASS
Codec ID/Info : Advanced Sub Station Alpha
Duration : 28 min 45 s
Bit rate : 8 035 b/s
Count of elements : 8192
Compression mode : Lossless
Stream size : 1.65 MiB (0%)
Title : Ver 02
Language : English
Default : No
Forced : No

Скриншоты

Релиз / Автор рипа: Deadmauvlad ^_^
[korsars.info].t31957.torrent 
Торрент: Зарегистрирован [ 2020-09-16 13:59 ] · 3749F4D45CC7AB668EB2DCF79571E9D4C42F2CF8

Скачать .torrent

Размер .torrent файла 13 KB

Статус: проверено
.torrent скачан: 2 раз
Размер: 8,95 GB
Правила
Похожие темы

[Профиль] [ЛС]
Показать сообщения:    
Ответить на тему

Текущее время: 19-Сен 06:08

Часовой пояс: UTC + 4



Вы не можете начинать темы
Вы не можете отвечать на сообщения
Вы не можете редактировать свои сообщения
Вы не можете удалять свои сообщения
Вы не можете голосовать в опросах
Вы не можете прикреплять файлы к сообщениям
Вы можете скачивать файлы
Анализ сайта korsars.info Яндекс.Метрика